44 коти / 44 Cats (Сезон 1) (2018) 1080p

Нові коментарі

Нова тема   Відповісти
Автор Повідомлення
sergiyko.5 
VIP


З нами з: 25.02.16
Востаннє: 04.08.20
Повідомлень: 3298

2019-10-31 18:32  
44 коти / 44 Cats (Сезон 1) (2018) 1080p

44 коти / 44 Cats (Сезон 1) (2018) 1080p

Жанр: пригоди, дитячий
Країна: Італія
Кінокомпанія: Institute of Antoniano, Rai Fiction, Rainbow See more
Режисер: Іджиніо Страффі

Сюжет:
44 коти – мультсеріал , що оповідає про чотирьох милих кошенят: Лампу, Міледі, Пилу і Пончика.

Пухнастики живуть в будинку бабусі Піни, вони люблять музику і пісні, тому створили власну музичну групу під назвою "Киць-киць-коти". Старий бабусин гараж Кошенята перетворили в свій клуб, де проводять час удосконалюючи свої музичні таланти, а також дають концерти своїм друзям і сусідам. Вони намагаються завжди бути веселими і дружно проходять всі труднощі і допомагають тим, хто потрапив у біду.




Тривалість: 1 серія: 12:01 (цілком серій: 52 з 52)
Якість:

Відео: кодек: розмір кадру: 1920 х 1080 бітрейт: 4300 кб/с
Аудіо: мова: українська переклад: професійний дубльований кодек: 2.0 бітрейт: 192 кб/с [Stereo]
Озвучення:

Примітка: українська доріжка записана з супутникової трансляції і синхронізована під HD відео, звук не розтягувався і не змінювався темп.
Перелік серій
01 Котяча місія
02 Порятунок цуценяти
03 Космо – кіт-астронавт
04 Пастки на котів
05 Габі – кішка-журналістка
06 Газ – кіт-смердюк
07 Секретний рецепт бабусі Піни
08 Неко – кіт-счастливчик
09 Собака – це друг
10 Спалах і шалені перегони
11 Котяча застуда
12 Конкурс танців
13 Міледі і майстер кіт-фу
14 Цирк Мілки та Шоко
15 Няньки для собак
16 Секретний прийом Фрикаделя
17 Підводна місія
18 Перчинка – шеф-киця
19 Поважна киця Снобіна
20 Чотири коти і верблюд
21 Детектив Пілоу
22 Гра для буффі-котів
23 Кіт-супергерой
24 Спалах на буффі-олімпіаді
25 Кіт-дизайнер Амброджіо
26 Новий друг Пілоу
27 Коти у чорному
28 Мистецтво пана Палітри
29 Боягузики
30 Місія на горищі
31 Летючий кіт
32 Скарб Тутанкітмона
33 Порятунок Рутиного пташеняти
34 Хай переможе найкращий
35 Дикі коти
36 Кіт поліціянт на завданні
37 Сер Арчібальд – кіт-джентельмен
38 Пілоу і погоня на самокатах
39 Хвістбол
40 Тиранозавр Пілоу
41 Метушня через сміття
42 Маленький помічник Санти
43 Щасливий день Фрикаделя
44 Усі хочуть мяурозива
45 Історії біля вогнища
46 Круті рожеві лапки
47 Сновида Фрикадель
48 Бонго на сцені
49 Коти на фермі
50 Квест з качалкою
51 Пілоу нянчить кошеня
52 "44 коти" – мюзикл
Про файл:
General
Unique ID : 26921477252343660007177294528993586732 (0x1440E34EA48A0772500FABE52C846E2C)
Complete name : D:\Documents\Torrents\MULTSER\44 Cats 1080p \S01E01.Buffycats on a Mission.1080p..
Format :
Format version : Version 4
File size : 387 MiB
Duration : 12 min 1 s
Overall bit rate : 4 499 kb/s
Movie name : 44 Cats 1080p by sergiyko
Encoded date : UTC 2019-10-31 15:04:51
Writing application : v38.0.0 ('The Silent Type') 64-bit
Writing library : libebml v1.3.9 + v1.5.2

Video
ID : 1
Format : AVC
Format/Info : Advanced Video Codec
Format profile : [email protected]
Format settings : CABAC / 6 Ref Frames
Format settings, CABAC : Yes
Format settings, Reference : 6 frames
Codec ID : V_MPEG4/ISO/AVC
Duration : 12 min 1 s
Bit rate : 4 305 kb/s
Width : 1 920 pixels
Height : 1 080 pixels
Display aspect ratio : 16:9
Frame rate mode : Constant
Frame rate : 25.000 FPS
Color space : YUV
Chroma subsampling : 4:2:0
Bit depth : 8 bits
Scan type : Progressive
Bits/(Pixel*Frame) : 0.083
Stream size : 370 MiB (96%)
Title : S01E01.Buffycats on a Mission
Writing library : core 157 r2969 d4099dd
Encoding settings : cabac=1 / ref=6 / deblock=1:-1:-1 / analyse=0x3:0x133 / me=umh / subme=9 / psy=1 / psy_rd=0.40:0.00 / mixed_ref=1 / me_range=24 / chroma_me=1 / trellis=2 / 8x8dct=1 / cqm=0 / deadzone=21,11 / fast_pskip=1 / chroma_qp_offset=-2 / threads=24 / lookahead_threads=2 / sliced_threads=0 / nr=0 / decimate=1 / interlaced=0 / bluray_compat=0 / constrained_intra=0 / bframes=4 / b_pyramid=2 / b_adapt=2 / b_bias=0 / direct=3 / weightb=1 / open_gop=0 / weightp=2 / keyint=250 / keyint_min=25 / scenecut=40 / intra_refresh=0 / rc_lookahead=60 / rc=2pass / mbtree=1 / bitrate=4305 / ratetol=1.0 / qcomp=0.70 / qpmin=0 / qpmax=69 / qpstep=4 / cplxblur=20.0 / qblur=0.5 / ip_ratio=1.40 / aq=1:0.60
Language : English
Default : Yes
Forced : No

Audio
ID : 2
Format : AC-3
Format/Info : Audio Coding 3
Commercial name : Dolby Digital
Codec ID : A_AC3
Duration : 12 min 0 s
Bit rate mode : Constant
Bit rate : 192 kb/s
Channel(s) : 2 channels
Channel layout : L R
Sampling rate : 48.0 kHz
Frame rate : 31.250 FPS (1536 SPF)
Bit depth : 16 bits
Compression mode : Lossy
Stream size : 16.5 MiB (4%)
Title : DUB 2ch | ПлюсПлюс
Language : Ukrainian
Service kind : Complete Main
Default : Yes
Forced : No
Скріншоти:


Автор релізу: sergiyko


Бронзовий реліз (на рейтинг впливає 75% завантаженого)
 Трекер:    Зареєстрований   

Завантажити / скачати мультфільм українською



відео для новачків



 Зареєстрований:   2020-03-05 17:19
 Розмір:   26.4 GB 
 Оцінка мультсеріалу:   10/10 (Голосів: 10)
   
vneznaikin 
Новенький


З нами з: 13.03.09
Востаннє: 17.06.20
Повідомлень: 1

2019-11-21 15:33  
Виправте, будь ласка, заголовок 44 коти / 44 Cats
sergiyko.5 
VIP


З нами з: 25.02.16
Востаннє: 04.08.20
Повідомлень: 3298

2020-03-05 17:20  
Додав серії до повного сезону. Приємного перегляду!
Ваш часовий пояс: GMT + 2 Години

Нова тема   Відповісти