Велетень / The Mighty (1998) AVC Ukr/Eng | Sub Ukr/Eng

Нові коментарі

Нова тема   Відповісти
Автор Повідомлення
Arsenfpu 
Відео Гуртом - фільмокрай
Відео Гуртом - фільмокрай


З нами з: 30.04.09
Востаннє: 20.11.19
Повідомлень: 6239

2019-10-31 08:06  
Велетень / The Mighty (1998) AVC Ukr/Eng | Sub Ukr/Eng

Велетень / The Mighty (1998) AVC Ukr/Eng | Sub Ukr/Eng


Жанр: драма, комедія
Країна: США



Кінокомпанія: Chaos Productions, Jane Startz Productions, Miramax Films
Режисер: Пітер Челсом
Актори: Кіран Калкін, Елден Генсон, Шерон Стоун, Джиліан Андерсон, Гаррі Дін Стентон, Джина Роулендс, Джеймс Гандольфіні

Сюжет:
Сталося так, що несподівана зустріч містичним чином змінила долі двох самотніх школярів. Вони були абсолютно не схожі один на одного: Макс – мовчазний, сором'язливий і незграбний гігант та Кевін – маленький, кмітливий і невиліковно хворий. У своєму класі обидва хлопчики були об'єктами для кепкування та булінгу. І тоді вони вирішили протистояти несправедливості, об'єднавшись в єдине ціле – у відважного і могутнього лицаря-велетня ...


Тривалість: 01:40:29
Якість:
Відео:
кодек:
розмір кадру: 1 024 х 576
бітрейт: 2 499 кб/с

Аудіо # 1:
мова: українська
переклад: багатоголосий закадровий
кодек: 2.0
бітрейт: 192 кб/с

Аудіо # 2:
мова: англійська
переклад: оригінал
кодек: 2.0
бітрейт: 192 кб/с

Субтитри:
мова: українська
тип: програмні (м'які)
формат: *.srt

Субтитри:
мова: англійська
тип: програмні (м'які)
формат: *.srt
Про файл
General
Unique ID : 243487279763218434828046130863234691461 (0xB72DF1BEC7F171B705EF98AFB8F93185)
Complete name : C:\The Mighty (1998) [Ukr,Eng] AVC [Hurtom].
Format :
Format version : Version 4 / Version 2
File size : 2.03 GiB
Duration : 1 h 40 min
Overall bit rate : 2 885 kb/s
Movie name : Велетень (Могутній) / The Mighty (1998)
Encoded date : UTC 2019-10-30 19:38:27
Writing application : v21.0.0 ('Tardigrades Will Inherit The Earth') 32-bit
Writing library : libebml v1.3.5 + v1.4.8
Cover : Yes
Attachments : cover.jpg

Video
ID : 1
Format : AVC
Format/Info : Advanced Video Codec
Format profile : [email protected]
Format settings, CABAC : Yes
Format settings, ReFrames : 4 frames
Codec ID : V_MPEG4/ISO/AVC
Duration : 1 h 40 min
Bit rate : 2 499 kb/s
Width : 1 024 pixels
Height : 576 pixels
Display aspect ratio : 16:9
Frame rate mode : Constant
Frame rate : 23.976 (24000/1001) FPS
Color space : YUV
Chroma subsampling : 4:2:0
Bit depth : 8 bits
Scan type : Progressive
Bits/(Pixel*Frame) : 0.177
Stream size : 1.75 GiB (87%)
Writing library : core 157 r2935 545de2f
Encoding settings : cabac=1 / ref=3 / deblock=1:-1:-1 / analyse=0x3:0x113 / me=hex / subme=7 / psy=1 / psy_rd=1.00:0.15 / mixed_ref=1 / me_range=16 / chroma_me=1 / trellis=1 / 8x8dct=1 / cqm=0 / deadzone=21,11 / fast_pskip=1 / chroma_qp_offset=-3 / threads=12 / lookahead_threads=2 / sliced_threads=0 / nr=0 / decimate=1 / interlaced=0 / bluray_compat=0 / constrained_intra=0 / bframes=3 / b_pyramid=2 / b_adapt=1 / b_bias=0 / direct=1 / weightb=1 / open_gop=0 / weightp=2 / keyint=240 / keyint_min=23 / scenecut=40 / intra_refresh=0 / rc_lookahead=40 / rc=2pass / mbtree=1 / bitrate=2499 / ratetol=1.0 / qcomp=0.60 / qpmin=0 / qpmax=69 / qpstep=4 / cplxblur=20.0 / qblur=0.5 / ip_ratio=1.40 / aq=1:1.00
Default : Yes
Forced : No

Audio #1
ID : 2
Format : AC-3
Format/Info : Audio Coding 3
Mode extension : CM (complete main)
Format settings, Endianness : Big
Codec ID : A_AC3
Duration : 1 h 40 min
Bit rate mode : Constant
Bit rate : 192 kb/s
Channel(s) : 2 channels
Channel positions : Front: L R
Sampling rate : 48.0 kHz
Frame rate : 31.250 FPS (1536 spf)
Compression mode : Lossy
Stream size : 138 MiB (7%)
Title : amc
Language : Ukrainian
Default : Yes
Forced : Yes

Audio #2
ID : 3
Format : AC-3
Format/Info : Audio Coding 3
Mode extension : CM (complete main)
Format settings, Endianness : Big
Codec ID : A_AC3
Duration : 1 h 40 min
Bit rate mode : Constant
Bit rate : 192 kb/s
Channel(s) : 2 channels
Channel positions : Front: L R
Sampling rate : 48.0 kHz
Frame rate : 31.250 FPS (1536 spf)
Compression mode : Lossy
Stream size : 138 MiB (7%)
Language : English
Default : No
Forced : No

Text #1
ID : 4
Format : UTF-8
Codec ID : S_TEXT/UTF8
Codec ID/Info : UTF-8 Plain Text
Duration : 1 h 33 min
Bit rate : 73 b/s
Count of elements : 859
Stream size : 50.2 KiB (0%)
Language : Ukrainian
Default : Yes
Forced : No

Text #2
ID : 5
Format : UTF-8
Codec ID : S_TEXT/UTF8
Codec ID/Info : UTF-8 Plain Text
Duration : 1 h 38 min
Bit rate : 55 b/s
Count of elements : 1090
Stream size : 39.8 KiB (0%)
Language : English
Default : No
Forced : No
Скріншоти














Джерело:
За матеріал для релізу дякую п. drop_plz, Krigg070, Voron16
Особиста оцінка: не дивився


Срібний реліз (на рейтинг впливає 50% завантаженого)
 Трекер:    Зареєстрований   

Завантажити / скачати фільм українською



відео для новачків



 Зареєстрований:   2019-10-31 08:06
 Розмір:   2.03 GB 
 Оцінка фільму:   8.7/10 (Голосів: 7)
   
Інші релізи
t850 
VIP


З нами з: 03.10.12
Востаннє: 20.11.19
Повідомлень: 268

2019-10-31 13:08  
Ооооо... не вірю своїм очам. Круто.
petro_nm 
Новенький


З нами з: 25.05.11
Востаннє: 10.11.19
Повідомлень: 3

2019-11-03 00:36  
чудовий фільм для сімейного перегляду
ajshja 
Новенький


З нами з: 01.08.16
Востаннє: 16.11.19
Повідомлень: 1

2019-11-03 00:48  
Один з найкращих фільмів евер!
Ваш часовий пояс: GMT + 2 Години

Нова тема   Відповісти