Гамлет / Hamlet (2000) AVC Ukr/Eng | sub Eng

Нові коментарі

Нова тема   Відповісти
Автор Повідомлення
Arsenfpu 
Відео Гуртом - фільмокрай
Відео Гуртом - фільмокрай


З нами з: 30.04.09
Востаннє: 22.11.19
Повідомлень: 6241

2019-10-30 21:12  
Гамлет / Hamlet (2000) AVC Ukr/Eng | sub Eng

Гамлет / Hamlet (2000) AVC Ukr/Eng | sub Eng


Жанр: трилер, драма, мелодрама
Країна: США



Кінокомпанія: Miramax Films
Режисер: Майкл Алмерейда
Актори: Ітан Хоук, Кайл Маклаклан, Діана Венора, Лів Шрайбер, Джулія Стайлс, Білл Мюррей, Карл Гірі, Стів Зан, Сем Шепард

Сюжет:
Дія цього фільму, знятого за мотивами безсмертної драми Шекспіра, розгортається в сучасному Нью-Йорку. Гамлет постає в ролі режисера, якому після смерті батька насилу вдається впоратися з управлінням компанією «Датська корпорація». Після трансцендентного досвіду спілкування з привидом свого батька, він занурюється в безодню сумнівів, нерішучості і страждань ...


Тривалість: 01:51:43
Якість:
Відео:
кодек:
розмір кадру: 1 024 х 560
бітрейт: 2 499 кб/с

Аудіо # 1:
мова: українська
переклад: багатоголосий закадровий
кодек: 2.0
бітрейт: 192 кб/с
примітка: озвучення відбувається у віршованій формі

Аудіо # 2:
мова: англійська
переклад: оригінал
кодек: 2.0
бітрейт: 192 кб/с

Субтитри:
мова: англійська
тип: програмні (м'які)
формат: *.srt
Про файл
General
Unique ID : 84416082785103551640007299261189830539 (0x3F81F237B2750CE155FDB99001B7B78B)
Complete name : C:\Hamlet (2000) [Ukr,Eng] AVC [Hurtom].
Format :
Format version : Version 4 / Version 2
File size : 2.25 GiB
Duration : 1 h 51 min
Overall bit rate : 2 884 kb/s
Movie name : Гамлет / Hamlet (2000)
Encoded date : UTC 2019-10-30 18:37:58
Writing application : v21.0.0 ('Tardigrades Will Inherit The Earth') 32-bit
Writing library : libebml v1.3.5 + v1.4.8
Cover : Yes
Attachments : cover.jpg

Video
ID : 1
Format : AVC
Format/Info : Advanced Video Codec
Format profile : [email protected]
Format settings, CABAC : Yes
Format settings, ReFrames : 4 frames
Codec ID : V_MPEG4/ISO/AVC
Duration : 1 h 51 min
Bit rate : 2 499 kb/s
Width : 1 024 pixels
Height : 560 pixels
Display aspect ratio : 1.85:1
Frame rate mode : Constant
Frame rate : 23.976 (24000/1001) FPS
Color space : YUV
Chroma subsampling : 4:2:0
Bit depth : 8 bits
Scan type : Progressive
Bits/(Pixel*Frame) : 0.182
Stream size : 1.95 GiB (87%)
Writing library : core 157 r2935 545de2f
Encoding settings : cabac=1 / ref=3 / deblock=1:-1:-1 / analyse=0x3:0x113 / me=hex / subme=7 / psy=1 / psy_rd=1.00:0.15 / mixed_ref=1 / me_range=16 / chroma_me=1 / trellis=1 / 8x8dct=1 / cqm=0 / deadzone=21,11 / fast_pskip=1 / chroma_qp_offset=-3 / threads=12 / lookahead_threads=2 / sliced_threads=0 / nr=0 / decimate=1 / interlaced=0 / bluray_compat=0 / constrained_intra=0 / bframes=3 / b_pyramid=2 / b_adapt=1 / b_bias=0 / direct=1 / weightb=1 / open_gop=0 / weightp=2 / keyint=240 / keyint_min=23 / scenecut=40 / intra_refresh=0 / rc_lookahead=40 / rc=2pass / mbtree=1 / bitrate=2499 / ratetol=1.0 / qcomp=0.60 / qpmin=0 / qpmax=69 / qpstep=4 / cplxblur=20.0 / qblur=0.5 / ip_ratio=1.40 / aq=1:1.00
Default : Yes
Forced : No

Audio #1
ID : 2
Format : AC-3
Format/Info : Audio Coding 3
Mode extension : CM (complete main)
Format settings, Endianness : Big
Codec ID : A_AC3
Duration : 1 h 51 min
Bit rate mode : Constant
Bit rate : 192 kb/s
Channel(s) : 2 channels
Channel positions : Front: L R
Sampling rate : 48.0 kHz
Frame rate : 31.250 FPS (1536 spf)
Compression mode : Lossy
Stream size : 153 MiB (7%)
Title : amc
Language : Ukrainian
Default : Yes
Forced : Yes

Audio #2
ID : 3
Format : AC-3
Format/Info : Audio Coding 3
Mode extension : CM (complete main)
Format settings, Endianness : Big
Codec ID : A_AC3
Duration : 1 h 51 min
Bit rate mode : Constant
Bit rate : 192 kb/s
Channel(s) : 2 channels
Channel positions : Front: L R
Sampling rate : 48.0 kHz
Frame rate : 31.250 FPS (1536 spf)
Compression mode : Lossy
Stream size : 153 MiB (7%)
Language : English
Default : No
Forced : No

Text
ID : 4
Format : UTF-8
Codec ID : S_TEXT/UTF8
Codec ID/Info : UTF-8 Plain Text
Duration : 1 h 43 min
Bit rate : 86 b/s
Count of elements : 1374
Stream size : 65.7 KiB (0%)
Language : English
Default : Yes
Forced : No
Скріншоти














Джерело:
За матеріал для роботи дякую п. kryk-v.ya., drop_plz, Krigg070
Особиста оцінка: не дивився


Срібний реліз (на рейтинг впливає 50% завантаженого)
 Трекер:    Зареєстрований   

Завантажити / скачати фільм українською



відео для новачків



 Зареєстрований:   2019-10-30 21:12
 Розмір:   2.25 GB 
 Оцінка фільму:   8.2/10 (Голосів: 5)
   
Інші релізи
   Гамлет / Hamlet (2000) Remux 1080p Ukr/Eng | Sub Eng kryk-v.ya.  1 / 0   25.05 GB   2019-10-19 18:16 
   Гамлет / Hamlet (2000) drop_plz  5 / 0   1.4 GB   2019-10-19 07:49 
   Гамлет / Hamlet (2000) Arsenfpu  3 / 0   2.71 GB   2017-10-07 07:54 
sinpavla 
Свій


З нами з: 15.06.12
Востаннє: 22.11.19
Повідомлень: 116

2019-11-03 04:11  
красно дякую
Ваш часовий пояс: GMT + 2 Години

Нова тема   Відповісти