Ілай / Eli (2019) 1080p Eng | sub Ukr

Нові коментарі

Нова тема   Відповісти
Автор Повідомлення
Chupacabr007 
Свій


З нами з: 07.07.15
Востаннє: 02.12.20
Повідомлень: 94

2019-10-30 13:36  
Ілай / Eli (2019) 1080p Eng | sub Ukr

Ілай / Eli (2019) 1080p Eng | sub Ukr


Жанр: жахи
Країна: США



Кінокомпанія: Intrepid Pictures, Bellevue Productions, Paramount Players
Режисер: Кіаран Фой
Актори: Чарлі Шотуелл, Келлі Райлі, Макс Мартіні, Лілі Тейлор, Сіді Сінк, Денін Тайлер, Катя Гомез

Сюжет:
Восьмирічний Ілай страждає від аутоімунного захворювання, і контакт із зовнішнім світом для нього смертельний - хлопчик повинен залишатися всередині спеціального пристрою і пересуватися по вулиці у скафандрі. Батьки Ілая не мають зайвих грошей, тому погоджуються на експериментальне лікування. Сім'я приїжджає до лікарки Хорн, яка обладнала цілий будинок очисними системами і запевняє, що її методика вже допомогла кільком дітям з подібними захворюваннями. На новому місці Ілаю трохи не по собі, і незабаром він починає бачити привидів.


Тривалість: 01:38:06
Якість:
Відео:
кодек:
розмір кадру: 1920 х 1080
бітрейт: 5820 кб/с

Аудіо:
мова: англійська
переклад: оригінал
кодек: E- 5.1
бітрейт: 640 кб/с

Субтитри:
мова: українська
тип: програмні (м'які)
формат: *.srt
переклад: [SubAutumn]
Info
General
Complete name : D:\SubAutumn\Films\Eli\Eli (2019) [Eng Sub.Ukr] 1080p [Hurtom].
Format :
Format version : Version 4 / Version 2
File size : 4.52 GiB
Duration : 1h 38mn
Overall bit rate mode : Variable
Overall bit rate : 6 592 Kbps
Movie name : Eli (2019) [Eng Sub.Ukr] 1080p [Hurtom]
Encoded date : UTC 2019-10-30 11:03:02
Writing application : v6.5.0 ('Isn't she lovely') built on Oct 20 2013 12:50:05
Writing library : libebml v1.3.0 + v1.4.1

Video
ID : 1
Format : AVC
Format/Info : Advanced Video Codec
Format profile : [email protected]
Format settings, CABAC : Yes
Format settings, ReFrames : 4 frames
Codec ID : V_MPEG4/ISO/AVC
Duration : 1h 38mn
Bit rate mode : Variable
Bit rate : 5 820 Kbps
Maximum bit rate : 20.0 Mbps
Width : 1 920 pixels
Height : 1 080 pixels
Display aspect ratio : 16:9
Frame rate mode : Constant
Frame rate : 23.976 fps
Color space : YUV
Chroma subsampling : 4:2:0
Bit depth : 8 bits
Scan type : Progressive
Bits/(Pixel*Frame) : 0.117
Stream size : 3.99 GiB (88%)
Writing library : core 148 r2715 7e75228
Encoding settings : cabac=1 / ref=4 / deblock=1:0:0 / analyse=0x3:0x111 / me=umh / subme=10 / psy=1 / psy_rd=1.00:0.00 / mixed_ref=1 / me_range=120 / chroma_me=1 / trellis=2 / 8x8dct=1 / cqm=0 / deadzone=21,11 / fast_pskip=1 / chroma_qp_offset=-2 / threads=8 / lookahead_threads=2 / sliced_threads=0 / nr=0 / decimate=1 / interlaced=0 / bluray_compat=0 / stitchable=1 / constrained_intra=0 / bframes=16 / b_pyramid=2 / b_adapt=2 / b_bias=0 / direct=3 / weightb=1 / open_gop=0 / weightp=2 / keyint=240 / keyint_min=121 / scenecut=0 / intra_refresh=0 / rc_lookahead=240 / rc=crf / mbtree=1 / crf=16.0 / qcomp=0.50 / qpmin=6 / qpmax=51 / qpstep=4 / vbv_maxrate=20000 / vbv_bufsize=25000 / crf_max=0.0 / nal_hrd=vbr / filler=0 / ip_ratio=1.40 / aq=1:0.80
Language : English
Default : Yes
Forced : No

Audio
ID : 2
Format : E-AC-3
Format/Info : Audio Coding 3
Format settings, Endianness : Big
Codec ID : A_EAC3
Duration : 1h 38mn
Bit rate mode : Constant
Bit rate : 640 Kbps
Channel(s) : 6 channels
Channel positions : Front: L C R, Side: L R, LFE
Sampling rate : 48.0 KHz
Compression mode : Lossy
Stream size : 449 MiB (10%)
Title : English
Language : English
Default : No
Forced : No

Text
ID : 3
Format : UTF-8
Codec ID : S_TEXT/UTF8
Codec ID/Info : UTF-8 Plain Text
Title : Eli (2019) [Eng Sub.Ukr] 1080p [Hurtom]
Language : Ukrainian
Default : Yes
Forced : No
Скріншоти




Джерело:
Українізація постера: Otaku-First


Золотий реліз (завантажене не впливає на рейтинг)
 Трекер:    Зареєстрований   

Завантажити / скачати фільм українською



відео для новачків



 Зареєстрований:   2019-10-30 13:36
 Розмір:   4.52 GB 
 Оцінка фільму:   9.9/10 (Голосів: 11)
   
Jani307 
Свій


З нами з: 09.06.14
Востаннє: 02.12.20
Повідомлень: 134

2019-10-30 18:29  
І як воно?
+380954897458 
VIP


З нами з: 02.06.17
Востаннє: 02.12.20
Повідомлень: 990

2019-10-30 20:12  
Jani307
Подивися й дізнаєшся...

tpolit 
Попереджень: 1
Попереджень: 1 


З нами з: 10.01.15
Востаннє: 02.12.20
Повідомлень: 641

2019-11-02 01:55  
Спочатку думав, що кіно нудне, розвиток подій повільний, а ідея - не дуже й цікава, але потім настав фінал фільму, і я чомусь одразу поліз ставити десяточку на imdb. Круто загнули!
nosferatumes 
Свій


З нами з: 12.10.16
Востаннє: 02.12.20
Повідомлень: 85

2019-11-09 18:26  
Фінал неочікуваний, такого точно не чекав. Сподобалось, один раз глянути варто.
Ваш часовий пояс: GMT + 2 Години

Нова тема   Відповісти