Війна / War (2007) [Open Matte] 1080p 3хUkr/Eng | Sub Ukr/Eng

Нові коментарі

Нова тема   Відповісти
Останній раз роздавалося PETROVICHUA-007 (2020-06-04)
Автор Повідомлення
Anonymous 







2019-10-29 15:36  
Війна / War (2007) [Open Matte] 1080p 3хUkr/Eng | Sub Ukr/Eng

Війна / War (2007) [Open Matte] 1080p 3хUkr/Eng | Sub Ukr/Eng


Жанр: екшн, кримінальний, трилер
Країна: США
Кінокомпанія: Lionsgate, Mosaic Media Group, Fierce Entertainment
Режисер: Філліп Дж. Етвелл / Philip G. Atwell
Актори: Джейсон Стейтем / Jason Statham, Джет Лі / Jet Li, Джон Лоун / John Lone, Девон Аокі / Devon Aoki, Луіс Ґузман / Luis Guzmán, Сол Рубінек / Saul Rubinek, Ре Ісібасі / Ryo Ishibashi, Санґ Кенґ / Sung Kang, Метью Ст. Патрік / Mathew St. Patrick, Надін Веласкес / Nadine Velazquez та інші

Сюжет:
У світі, яким править страх, тільки правосуддя врятовує життя. На рахунку агента ФБР Джека Кроуфорда і його напарника немало знешкоджених бандитів. Але справедливість і закон виявилися безсилі, коли одержимий вбивця оголосив їм війну. З цієї миті життя Кроуфорда перетворюється на нескінченну гру із смертю, захоплюючу і жорстоку. Гру, де життя не коштує нічого, а колишні друзі стають заклятими ворогами.

Тривалість: 01:42:53
Якість:

Відео:
кодек:
розмір кадру: 1920 x 1080
бітрейт: 13 187 кб/с

Аудіо # 1:
мова: українська
переклад: двоголосий закадровий
кодек: AC-3 2.0
бітрейт: 192 кб/с

Аудіо # 2:
мова: українська
переклад: багатоголосий закадровий
кодек: AC-3 2.0
бітрейт: 192 кб/с

Аудіо # 3:
мова: українська
переклад: багатоголосий закадровий
кодек: AC-3 2.0
бітрейт: 192 кб/с

Аудіо # 4:
мова: англійська
переклад: оригінал
кодек: 5.1
бітрейт: 1510 кб/с

Субтитри # 1: (Full)
мова: українська
тип: програмні (м'які)
формат: *.srt

Субтитри # 2: (Full)
мова: англійська
тип: програмні (м'які)
формат: *.srt


Info
Код:
General
Unique ID                                : 172392131266503304420204447670309254090 (0x81B1844B94FC2870C5B25CE8D10073CA)
Complete name                            : War (2007) [Open Matte] 1080p [3xUKR_ENG] [Hurtom].
Format                                   :
Format version                           : Version 4
File size                                : 11.0 GiB
Duration                                 : 1 h 42 min
Overall bit rate                         : 15.3 Mb/s
Movie name                               : Війна / War (2007)
Encoded date                             : UTC 2019-10-28 13:33:05
Writing application                      : v20.0.0 ('I Am The Sun') 64-bit
Writing library                          : libebml v1.3.5 + v1.4.8
Cover                                    : Yes
Attachments                              : Cover.jpg

Video
ID                                       : 1
Format                                   : AVC
Format/Info                              : Advanced Video Codec
Format profile                           : [email protected]
Format settings                          : CABAC / 4 Ref Frames
Format settings, CABAC                   : Yes
Format settings, Reference frames        : 4 frames
Codec ID                                 : V_MPEG4/ISO/AVC
Duration                                 : 1 h 42 min
Bit rate                                 : 13.2 Mb/s
Width                                    : 1 920 pixels
Height                                   : 1 080 pixels
Display aspect ratio                     : 16:9
Frame rate mode                          : Constant
Frame rate                               : 24.000 FPS
Color space                              : YUV
Chroma subsampling                       : 4:2:0
Bit depth                                : 8 bits
Scan type                                : Progressive
Bits/(Pixel*Frame)                       : 0.265
Stream size                              : 9.47 GiB (86%)
Title                                    : Війна / War (2007)
Writing library                          : core 146 r2538 121396c
Encoding settings                        : cabac=1 / ref=4 / deblock=1:-3:-3 / analyse=0x3:0x133 / me=umh / subme=11 / psy=1 / psy_rd=1.00:0.15 / mixed_ref=1 / me_range=32 / chroma_me=1 / trellis=2 / 8x8dct=1 / cqm=0 / deadzone=21,11 / fast_pskip=0 / chroma_qp_offset=-3 / threads=12 / lookahead_threads=2 / sliced_threads=0 / nr=0 / decimate=1 / interlaced=0 / bluray_compat=0 / constrained_intra=0 / bframes=8 / b_pyramid=2 / b_adapt=2 / b_bias=0 / direct=3 / weightb=1 / open_gop=0 / weightp=2 / keyint=250 / keyint_min=23 / scenecut=40 / intra_refresh=0 / rc_lookahead=40 / rc=2pass / mbtree=1 / bitrate=13186 / ratetol=1.0 / qcomp=0.60 / qpmin=0 / qpmax=69 / qpstep=4 / cplxblur=20.0 / qblur=0.5 / vbv_maxrate=50000 / vbv_bufsize=62500 / nal_hrd=none / filler=0 / ip_ratio=1.40 / aq=1:0.90
Language                                 : English
Default                                  : Yes
Forced                                   : No

Audio #1
ID                                       : 2
Format                                   : AC-3
Format/Info                              : Audio Coding 3
Commercial name                          : Dolby Digital
Codec ID                                 : A_AC3
Duration                                 : 1 h 42 min
Bit rate mode                            : Constant
Bit rate                                 : 192 kb/s
Channel(s)                               : 2 channels
Channel layout                           : L R
Sampling rate                            : 48.0 kHz
Frame rate                               : 31.250 FPS (1536 SPF)
Bit depth                                : 16 bits
Compression mode                         : Lossy
Stream size                              : 141 MiB (1%)
Title                                    : / 2.0 Ch / 192 kbps / ДЗ / 1+1
Language                                 : Ukrainian
Service kind                             : Complete Main
Default                                  : Yes
Forced                                   : Yes

Audio #2
ID                                       : 3
Format                                   : AC-3
Format/Info                              : Audio Coding 3
Commercial name                          : Dolby Digital
Codec ID                                 : A_AC3
Duration                                 : 1 h 42 min
Bit rate mode                            : Constant
Bit rate                                 : 192 kb/s
Channel(s)                               : 2 channels
Channel layout                           : L R
Sampling rate                            : 48.0 kHz
Frame rate                               : 31.250 FPS (1536 SPF)
Bit depth                                : 16 bits
Compression mode                         : Lossy
Stream size                              : 141 MiB (1%)
Title                                    : / 2.0 Ch / 192 kbps / БЗ / NTN
Language                                 : Ukrainian
Service kind                             : Complete Main
Default                                  : No
Forced                                   : No

Audio #3
ID                                       : 4
Format                                   : AC-3
Format/Info                              : Audio Coding 3
Commercial name                          : Dolby Digital
Codec ID                                 : A_AC3
Duration                                 : 1 h 42 min
Bit rate mode                            : Constant
Bit rate                                 : 192 kb/s
Channel(s)                               : 2 channels
Channel layout                           : L R
Sampling rate                            : 48.0 kHz
Frame rate                               : 31.250 FPS (1536 SPF)
Bit depth                                : 16 bits
Compression mode                         : Lossy
Stream size                              : 141 MiB (1%)
Title                                    : / 2.0 Ch / 192 kbps / БЗ / Kanal Ukraina
Language                                 : Ukrainian
Service kind                             : Complete Main
Default                                  : No
Forced                                   : No

Audio #4
ID                                       : 5
Format                                   :
Format/Info                              : Digital Theater Systems
Codec ID                                 : A_DTS
Duration                                 : 1 h 42 min
Bit rate mode                            : Constant
Bit rate                                 : 1 509 kb/s
Channel(s)                               : 6 channels
Channel layout                           : C L R Ls Rs LFE
Sampling rate                            : 48.0 kHz
Frame rate                               : 93.750 FPS (512 SPF)
Bit depth                                : 24 bits
Compression mode                         : Lossy
Stream size                              : 1.08 GiB (10%)
Title                                    : / 5.1 Ch / 1509 kbps / Original
Language                                 : English
Default                                  : No
Forced                                   : No

Text #1
ID                                       : 6
Format                                   : UTF-8
Codec ID                                 : S_TEXT/UTF8
Codec ID/Info                            : UTF-8 Plain Text
Duration                                 : 1 h 36 min
Bit rate                                 : 61 b/s
Count of elements                        : 880
Stream size                              : 43.4 KiB (0%)
Title                                    : Full
Language                                 : Ukrainian
Default                                  : Yes
Forced                                   : No

Text #2
ID                                       : 7
Format                                   : UTF-8
Codec ID                                 : S_TEXT/UTF8
Codec ID/Info                            : UTF-8 Plain Text
Duration                                 : 1 h 42 min
Bit rate                                 : 33 b/s
Count of elements                        : 885
Stream size                              : 25.5 KiB (0%)
Title                                    : Full
Language                                 : English
Default                                  : No
Forced                                   : No

Menu
00:00:00.000                             : en:Just a Look
00:07:58.824                             : en:Taken Off Guard
00:11:55.762                             : en:VIP Access
00:18:33.595                             : en:Rogue's Back
00:24:16.741                             : en:China Town Visit
00:29:19.861                             : en:Special Arrangement
00:39:48.348                             : en:Power Trip
00:47:41.812                             : en:Keeping an Eye
00:54:21.661                             : en:Spilling Blood
00:58:05.940                             : en:Go Time
01:02:41.152                             : en:Road Chase
01:08:13.621                             : en:Seeing the Doctor
01:15:37.855                             : en:Welcoming Committee
01:23:50.934                             : en:Paying Debts
01:31:27.064                             : en:Face to Face
01:36:48.900                             : en:Getaway Ride
Світлини




Джерело: &
Особиста оцінка: 0 - не дивився


 Трекер:    Зареєстрований   

Завантажити / скачати фільм українською



відео для новачків



 Зареєстрований:   2019-10-29 15:36
 Розмір:   10.97 GB 
 Оцінка фільму:   9/10 (Голосів: 4)
   
Інші релізи
   Війна / War (2007) [Open Matte] AVC 3хUkr/Eng | Sub Ukr/Eng Gingеrbread  2 / 0   3.08 GB   2019-10-28 18:26 
   Війна / War (2007) [Open Matte] 720p 3хUkr/Eng | Sub Ukr/Eng Gingеrbread  1 / 0   5.72 GB   2019-10-27 21:55 
   Анвар / Anwar (2007) Noble  2 / 0   2.19 GB   2019-01-11 20:10 
   Війна Чарлі Вілсона / Charlie Wilson's War (2007) 2xUkr/Eng Arsenfpu  2 / 0   1.87 GB   2017-08-29 18:38 
   Війна / War (2007) 3хUkr/Eng | Sub Ukr/Eng taraskill1  5 / 0   2.14 GB   2016-09-18 15:40 
   Війна Чарлі Вілсона / Charlie Wilson's War (2007) AVC Ukr/Eng | Sub Eng Загора  1 / 0   2.68 GB   2016-07-07 23:19 
   Війна Чарлі Вілсона / Charlie Wilson's War (2007) 720p Ukr/Eng | Sub Eng igor911  4 / 0   6.46 GB   2015-03-06 19:34 
   Війна Чарлі Вілсона / Charlie Wilson's War (2007) 1080p Ukr/Eng | Sub Eng igor911  4 / 0   11.72 GB   2015-03-06 19:08 
   Війна / War (2007) 3хUkr/Eng | sub Ukr/Eng JACKUS  1 / 0   2.59 GB   2012-08-11 14:24 
   Війна / War (2007) 720p 2хUkr/Eng | Sub Multilanguage Sando7  2 / 0   6.05 GB   2012-05-27 23:53 
iamasportsgirl98 
Новенький


З нами з: 17.01.18
Востаннє: 06.06.20
Повідомлень: 9

2019-12-16 11:45  
будьте такі добрі, поверніться на роздачу)
Ваш часовий пояс: GMT + 2 Години

Нова тема   Відповісти