Чужі Проти Хижака. Реквієм [Театральна версія] / AVPR: Aliens vs Predator - Requiem [Theatrical Cut] (2007) 1080p H.265 Ukr/Eng | Sub Eng

Нові коментарі

Нова тема   Відповісти
Останній раз роздавалося little_bru (2020-01-17)
Автор Повідомлення
Anonymous 







2019-10-29 14:27  
Чужі Проти Хижака. Реквієм [Театральна версія] / AVPR: Aliens vs Predator - Requiem [Theatrical Cut] (2007) 1080p H.265 Ukr/Eng | Sub Eng

Чужі Проти Хижака. Реквієм [Театральна версія] / AVPR: Aliens vs Predator - Requiem [Theatrical Cut] (2007) 1080p H.265 Ukr/Eng | Sub Eng


Жанр: екшн, жахи, фантастика, трилер
Країна: США
Кінокомпанія: Twentieth Century Fox, Davis Entertainment, Brandywine Productions
Режисер: Колін Страус, Ґреґ Страус
Актори: Стівен Паскуаль, Рейко Айлісворт, Джон Ортіс, Джонні Левіс, Аріель Ґейд, Крістен Гаґер та інші

Сюжет:
На борту космічного корабля хижаків, де було розташовано лабораторію з піддослідними істотами з раси чужих, трапляється непередбачене: зародок чужого інфікує одного з хижаків і, розвиваючись в його тілі, перероджується в новий надзвичайно небезпечний вид чужих. Між народженим мутантом і хижаком на борту корабля відбувається смертельна сутичка. Прилади навігації виходять з ладу, корабель каменем падає в атмосферу Землі і розбивається в лісі недалеко від міста людей. Після падіння зорельота, чужі, які виграли сутичку і залишилися неушкодженими, починають безжально інфікувати і винищувати всіх хто трапляється їм на шляху. Пробираючись поодинці в місто, вони продовжують свій кривавий поступ, збільшуючи свою чисельність і знищуючи мирне населення. В цей час на рідній планеті хижаків, прийнявши сигнал "SOS" від зорельоту, що впав на Землю, на нашу планету з каральною метою відправляється експедиція у складі лише одного хижака. Протистояння прибулого хижака і чужих виявляється смертельно небезпечним для людей. Хто б не переміг в цій битві, людство однаково програє.

Тривалість: 01:33:45
Якість:

Відео:
кодек: H.265 (HEVC)
розмір кадру: 1920 x 800
бітрейт: 5 809 кб/с
бітова глибина: 10 біт

Увага! Перед завантаженням переконайтесь, що ваш пристрій відтворення (та/або ПЗ) підтримує H.265 (HEVC)

Аудіо # 1:
мова: українська
переклад: багатоголосий закадровий
кодек: AC-3 2.0
бітрейт: 192 кб/с

Аудіо # 2:
мова: англійська
переклад: оригінал
кодек: AC-3 5.1
бітрейт: 640 кб/с

Субтитри # 1-2: (Full, SDH)
мова: англійська
тип: програмні (м'які)
формат: *.srt


Info
Код:
General
Unique ID                                : 74590344252917629156076489973034587102 (0x381D93E7CF459CA6DA24D577BCAB13DE)
Complete name                            : Aliens vs Predator - Requiem [Theatrical Cut] (2007) 1080p H.265 [UKR_ENG] [Hurtom].
Format                                   :
Format version                           : Version 4
File size                                : 4.35 GiB
Duration                                 : 1 h 33 min
Overall bit rate                         : 6 626 kb/s
Movie name                               : Чужі Проти Хижака. Реквієм [Театральна версія] / AVPR: Aliens vs Predator - Requiem [Theatrical Cut] (2007)
Encoded date                             : UTC 2019-10-28 22:26:07
Writing application                      : v20.0.0 ('I Am The Sun') 64-bit
Writing library                          : libebml v1.3.5 + v1.4.8
Cover                                    : Yes
Attachments                              : Cover.jpg

Video
ID                                       : 1
Format                                   : HEVC
Format/Info                              : High Efficiency Video Coding
Format profile                           : Main [email protected]@High
Codec ID                                 : V_MPEGH/ISO/HEVC
Duration                                 : 1 h 33 min
Bit rate                                 : 5 809 kb/s
Width                                    : 1 920 pixels
Height                                   : 800 pixels
Display aspect ratio                     : 2.40:1
Frame rate mode                          : Constant
Frame rate                               : 23.976 (24000/1001) FPS
Color space                              : YUV
Chroma subsampling                       : 4:2:0
Bit depth                                : 10 bits
Bits/(Pixel*Frame)                       : 0.158
Stream size                              : 3.80 GiB (87%)
Title                                    : Чужі Проти Хижака. Реквієм [Театральна версія] / AVPR: Aliens vs Predator - Requiem [Theatrical Cut] (2007)
Writing library                          : x265 2.5+20-0967d0add97e:[Windows][GCC 7.2.0][64 bit] 10bit
Encoding settings                        : cpuid=1173503 / frame-threads=4 / numa-pools=16 / wpp / no-pmode / no-pme / no-psnr / no-ssim / log-level=2 / input-csp=1 / input-res=1920x800 / interlace=0 / total-frames=0 / level-idc=41 / high-tier=1 / uhd-bd=0 / ref=5 / no-allow-non-conformance / no-repeat-headers / annexb / no-aud / no-hrd / info / hash=0 / no-temporal-layers / open-gop / min-keyint=23 / keyint=240 / bframes=8 / b-adapt=2 / no-b-pyramid / bframe-bias=0 / rc-lookahead=60 / lookahead-slices=4 / scenecut=40 / no-intra-refresh / ctu=64 / min-cu-size=8 / rect / amp / max-tu-size=32 / tu-inter-depth=4 / tu-intra-depth=4 / limit-tu=1 / rdoq-level=2 / dynamic-rd=0.00 / no-ssim-rd / signhide / no-tskip / nr-intra=0 / nr-inter=0 / no-constrained-intra / no-strong-intra-smoothing / max-merge=3 / limit-refs=3 / limit-modes / me=3 / subme=7 / merange=57 / temporal-mvp / weightp / weightb / no-analyze-src-pics / deblock=-3:-3 / no-sao / no-sao-non-deblock / rd=6 / no-early-skip / rskip / no-fast-intra / no-tskip-fast / no-cu-lossless / no-b-intra / no-splitrd-skip / rdpenalty=0 / psy-rd=2.00 / psy-rdoq=1.00 / rd-refine / analysis-reuse-mode=0 / no-lossless / cbqpoffs=0 / crqpoffs=0 / rc=crf / crf=18.5 / qcomp=0.60 / qpstep=4 / stats-write=0 / stats-read=0 / vbv-maxrate=50000 / vbv-bufsize=50000 / vbv-init=0.9 / crf-max=0.0 / crf-min=0.0 / ipratio=1.40 / pbratio=1.30 / aq-mode=1 / aq-strength=1.00 / cutree / zone-count=1 / zones: / start-frame=126178 / end-frame=134866 / qp=35 / no-strict-cbr / qg-size=32 / no-rc-grain / qpmax=69 / qpmin=0 / no-const-vbv / sar=1 / overscan=0 / videoformat=5 / range=0 / colorprim=2 / transfer=2 / colormatrix=1 / chromaloc=0 / display-window=0 / max-cll=0,0 / min-luma=0 / max-luma=1023 / log2-max-poc-lsb=8 / vui-timing-info / vui-hrd-info / slices=1 / opt-qp-pps / opt-ref-list-length-pps / no-multi-pass-opt-rps / scenecut-bias=0.05 / no-opt-cu-delta-qp / no-aq-motion / no-hdr / no-hdr-opt / no-dhdr10-opt / analysis-reuse-level=5 / scale-factor=0 / refine-intra=0 / refine-inter=0 / refine-mv=0 / no-limit-sao / ctu-info=0
Language                                 : English
Default                                  : Yes
Forced                                   : Yes
Color range                              : Limited
Matrix coefficients                      : BT.709

Audio #1
ID                                       : 2
Format                                   : AC-3
Format/Info                              : Audio Coding 3
Commercial name                          : Dolby Digital
Codec ID                                 : A_AC3
Duration                                 : 1 h 33 min
Bit rate mode                            : Constant
Bit rate                                 : 192 kb/s
Channel(s)                               : 2 channels
Channel layout                           : L R
Sampling rate                            : 48.0 kHz
Frame rate                               : 31.250 FPS (1536 SPF)
Bit depth                                : 16 bits
Compression mode                         : Lossy
Stream size                              : 129 MiB (3%)
Title                                    : / 2.0 Ch / 192 kbps / БЗ / 2+2
Language                                 : Ukrainian
Service kind                             : Complete Main
Default                                  : Yes
Forced                                   : Yes

Audio #2
ID                                       : 3
Format                                   : AC-3
Format/Info                              : Audio Coding 3
Commercial name                          : Dolby Digital
Codec ID                                 : A_AC3
Duration                                 : 1 h 33 min
Bit rate mode                            : Constant
Bit rate                                 : 640 kb/s
Channel(s)                               : 6 channels
Channel layout                           : L R C LFE Ls Rs
Sampling rate                            : 48.0 kHz
Frame rate                               : 31.250 FPS (1536 SPF)
Bit depth                                : 16 bits
Compression mode                         : Lossy
Stream size                              : 429 MiB (10%)
Title                                    : / 5.1 Ch / 640 kbps / Original
Language                                 : English
Service kind                             : Complete Main
Default                                  : No
Forced                                   : No

Text #1
ID                                       : 4
Format                                   : UTF-8
Codec ID                                 : S_TEXT/UTF8
Codec ID/Info                            : UTF-8 Plain Text
Duration                                 : 1 h 24 min
Bit rate                                 : 32 b/s
Count of elements                        : 550
Stream size                              : 20.1 KiB (0%)
Title                                    : Full
Language                                 : English
Default                                  : No
Forced                                   : No

Text #2
ID                                       : 5
Format                                   : UTF-8
Codec ID                                 : S_TEXT/UTF8
Codec ID/Info                            : UTF-8 Plain Text
Duration                                 : 1 h 27 min
Bit rate                                 : 28 b/s
Count of elements                        : 665
Stream size                              : 17.9 KiB (0%)
Title                                    : SDH
Language                                 : English
Default                                  : No
Forced                                   : No

Menu
00:00:00.000                             : :Chapter 01
00:03:16.487                             : :Chapter 02
00:05:28.995                             : :Chapter 03
00:06:37.480                             : :Chapter 04
00:08:11.741                             : :Chapter 05
00:12:54.857                             : :Chapter 06
00:14:45.634                             : :Chapter 07
00:18:55.092                             : :Chapter 08
00:22:32.768                             : :Chapter 09
00:27:10.295                             : :Chapter 10
00:30:12.477                             : :Chapter 11
00:33:16.911                             : :Chapter 12
00:34:41.996                             : :Chapter 13
00:39:04.592                             : :Chapter 14
00:43:00.244                             : :Chapter 15
00:45:54.543                             : :Chapter 16
00:49:09.863                             : :Chapter 17
00:52:49.291                             : :Chapter 18
00:58:02.770                             : :Chapter 19
00:59:55.717                             : :Chapter 20
01:02:27.201                             : :Chapter 21
01:05:12.491                             : :Chapter 22
01:09:39.717                             : :Chapter 23
01:12:14.997                             : :Chapter 24
01:16:20.284                             : :Chapter 25
01:21:30.302                             : :Chapter 26
01:24:17.969                             : :Chapter 27
01:26:51.706                             : :Chapter 28
Світлини




Джерело: &
Особиста оцінка: 0 - не дивився


 Трекер:    Зареєстрований   

Завантажити / скачати фільм українською



відео для новачків



 Зареєстрований:   2019-10-29 14:27
 Розмір:   4.35 GB 
 Оцінка фільму:   7.3/10 (Голосів: 4)
   
Ваш часовий пояс: GMT + 2 Години

Нова тема   Відповісти