Чужі Проти Хижака. Реквієм [Театральна версія] / AVPR: Aliens vs Predator - Requiem [Theatrical Cut] (2007) 720p Ukr/Eng | Sub Eng

Нові коментарі

Нова тема   Відповісти
Останній раз роздавалося coltojkee (2019-11-20)
Автор Повідомлення
Anonymous 







2019-10-29 14:26  
Чужі Проти Хижака. Реквієм [Театральна версія] / AVPR: Aliens vs Predator - Requiem [Theatrical Cut] (2007) 720p Ukr/Eng | Sub Eng

Чужі Проти Хижака. Реквієм [Театральна версія] / AVPR: Aliens vs Predator - Requiem [Theatrical Cut] (2007) 720p Ukr/Eng | Sub Eng


Жанр: екшн, жахи, фантастика, трилер
Країна: США
Кінокомпанія: Twentieth Century Fox, Davis Entertainment, Brandywine Productions
Режисер: Колін Страус, Ґреґ Страус
Актори: Стівен Паскуаль, Рейко Айлісворт, Джон Ортіс, Джонні Левіс, Аріель Ґейд, Крістен Гаґер та інші

Сюжет:
На борту космічного корабля хижаків, де було розташовано лабораторію з піддослідними істотами з раси чужих, трапляється непередбачене: зародок чужого інфікує одного з хижаків і, розвиваючись в його тілі, перероджується в новий надзвичайно небезпечний вид чужих. Між народженим мутантом і хижаком на борту корабля відбувається смертельна сутичка. Прилади навігації виходять з ладу, корабель каменем падає в атмосферу Землі і розбивається в лісі недалеко від міста людей. Після падіння зорельота, чужі, які виграли сутичку і залишилися неушкодженими, починають безжально інфікувати і винищувати всіх хто трапляється їм на шляху. Пробираючись поодинці в місто, вони продовжують свій кривавий поступ, збільшуючи свою чисельність і знищуючи мирне населення. В цей час на рідній планеті хижаків, прийнявши сигнал "SOS" від зорельоту, що впав на Землю, на нашу планету з каральною метою відправляється експедиція у складі лише одного хижака. Протистояння прибулого хижака і чужих виявляється смертельно небезпечним для людей. Хто б не переміг в цій битві, людство однаково програє.

Тривалість: 01:33:45
Якість:

Відео:
кодек:
розмір кадру: 1280 x 536
бітрейт: 3 790 кб/с

Аудіо # 1:
мова: українська
переклад: багатоголосий закадровий
кодек: AC-3 2.0
бітрейт: 192 кб/с

Аудіо # 2:
мова: англійська
переклад: оригінал
кодек: AC-3 5.1
бітрейт: 640 кб/с

Субтитри # 1-2: (Full, SDH)
мова: англійська
тип: програмні (м'які)
формат: *.srt


Info
Код:
General
Unique ID                                : 237775650904837001900552857294952373080 (0xB2E1ECB36599F0BAFE21F005544E9B58)
Complete name                            : Aliens vs Predator - Requiem [Theatrical Cut] (2007) 720p [UKR_ENG] [Hurtom].
Format                                   :
Format version                           : Version 4
File size                                : 3.03 GiB
Duration                                 : 1 h 33 min
Overall bit rate                         : 4 612 kb/s
Movie name                               : Чужі Проти Хижака. Реквієм [Театральна версія] / AVPR: Aliens vs Predator - Requiem [Theatrical Cut] (2007)
Encoded date                             : UTC 2019-10-28 22:28:33
Writing application                      : v20.0.0 ('I Am The Sun') 64-bit
Writing library                          : libebml v1.3.5 + v1.4.8
Cover                                    : Yes
Attachments                              : Cover.jpg

Video
ID                                       : 1
Format                                   : AVC
Format/Info                              : Advanced Video Codec
Format profile                           : [email protected]
Format settings                          : CABAC / 9 Ref Frames
Format settings, CABAC                   : Yes
Format settings, Reference frames        : 9 frames
Codec ID                                 : V_MPEG4/ISO/AVC
Duration                                 : 1 h 33 min
Bit rate                                 : 3 790 kb/s
Width                                    : 1 280 pixels
Height                                   : 536 pixels
Display aspect ratio                     : 2.40:1
Frame rate mode                          : Constant
Frame rate                               : 23.976 (24000/1001) FPS
Color space                              : YUV
Chroma subsampling                       : 4:2:0
Bit depth                                : 8 bits
Scan type                                : Progressive
Bits/(Pixel*Frame)                       : 0.230
Stream size                              : 2.48 GiB (82%)
Title                                    : Чужі Проти Хижака. Реквієм [Театральна версія] / AVPR: Aliens vs Predator - Requiem [Theatrical Cut] (2007)
Writing library                          : core 146 r2538 121396c
Encoding settings                        : cabac=1 / ref=9 / deblock=1:-2:-2 / analyse=0x3:0x113 / me=umh / subme=10 / psy=1 / psy_rd=1.00:0.00 / mixed_ref=1 / me_range=32 / chroma_me=1 / trellis=2 / 8x8dct=1 / cqm=0 / deadzone=21,11 / fast_pskip=0 / chroma_qp_offset=-2 / threads=12 / lookahead_threads=2 / sliced_threads=0 / nr=0 / decimate=1 / interlaced=0 / bluray_compat=0 / constrained_intra=0 / bframes=8 / b_pyramid=2 / b_adapt=2 / b_bias=0 / direct=3 / weightb=1 / open_gop=0 / weightp=2 / keyint=240 / keyint_min=23 / scenecut=40 / intra_refresh=0 / rc_lookahead=40 / rc=2pass / mbtree=0 / bitrate=3790 / ratetol=1.0 / qcomp=0.60 / qpmin=0 / qpmax=69 / qpstep=4 / cplxblur=20.0 / qblur=0.5 / vbv_maxrate=14000 / vbv_bufsize=14000 / nal_hrd=none / filler=0 / ip_ratio=1.40 / pb_ratio=1.30 / aq=1:1.00
Default                                  : Yes
Forced                                   : No

Audio #1
ID                                       : 2
Format                                   : AC-3
Format/Info                              : Audio Coding 3
Commercial name                          : Dolby Digital
Codec ID                                 : A_AC3
Duration                                 : 1 h 33 min
Bit rate mode                            : Constant
Bit rate                                 : 192 kb/s
Channel(s)                               : 2 channels
Channel layout                           : L R
Sampling rate                            : 48.0 kHz
Frame rate                               : 31.250 FPS (1536 SPF)
Bit depth                                : 16 bits
Compression mode                         : Lossy
Stream size                              : 129 MiB (4%)
Title                                    : / 2.0 Ch / 192 kbps / БЗ / 2+2
Language                                 : Ukrainian
Service kind                             : Complete Main
Default                                  : Yes
Forced                                   : Yes

Audio #2
ID                                       : 3
Format                                   : AC-3
Format/Info                              : Audio Coding 3
Commercial name                          : Dolby Digital
Codec ID                                 : A_AC3
Duration                                 : 1 h 33 min
Bit rate mode                            : Constant
Bit rate                                 : 640 kb/s
Channel(s)                               : 6 channels
Channel layout                           : L R C LFE Ls Rs
Sampling rate                            : 48.0 kHz
Frame rate                               : 31.250 FPS (1536 SPF)
Bit depth                                : 16 bits
Compression mode                         : Lossy
Stream size                              : 429 MiB (14%)
Title                                    : / 5.1 Ch / 640 kbps / Original
Language                                 : English
Service kind                             : Complete Main
Default                                  : No
Forced                                   : No

Text #1
ID                                       : 4
Format                                   : UTF-8
Codec ID                                 : S_TEXT/UTF8
Codec ID/Info                            : UTF-8 Plain Text
Duration                                 : 1 h 24 min
Bit rate                                 : 32 b/s
Count of elements                        : 550
Stream size                              : 20.1 KiB (0%)
Title                                    : Full
Language                                 : English
Default                                  : No
Forced                                   : No

Text #2
ID                                       : 5
Format                                   : UTF-8
Codec ID                                 : S_TEXT/UTF8
Codec ID/Info                            : UTF-8 Plain Text
Duration                                 : 1 h 27 min
Bit rate                                 : 28 b/s
Count of elements                        : 665
Stream size                              : 17.9 KiB (0%)
Title                                    : SDH
Language                                 : English
Default                                  : No
Forced                                   : No

Menu
00:00:00.000                             : :Chapter 01
00:03:16.487                             : :Chapter 02
00:05:28.995                             : :Chapter 03
00:06:37.480                             : :Chapter 04
00:08:11.741                             : :Chapter 05
00:12:54.857                             : :Chapter 06
00:14:45.634                             : :Chapter 07
00:18:55.092                             : :Chapter 08
00:22:32.768                             : :Chapter 09
00:27:10.295                             : :Chapter 10
00:30:12.477                             : :Chapter 11
00:33:16.911                             : :Chapter 12
00:34:41.996                             : :Chapter 13
00:39:04.592                             : :Chapter 14
00:43:00.244                             : :Chapter 15
00:45:54.543                             : :Chapter 16
00:49:09.863                             : :Chapter 17
00:52:49.291                             : :Chapter 18
00:58:02.770                             : :Chapter 19
00:59:55.717                             : :Chapter 20
01:02:27.201                             : :Chapter 21
01:05:12.491                             : :Chapter 22
01:09:39.717                             : :Chapter 23
01:12:14.997                             : :Chapter 24
01:16:20.284                             : :Chapter 25
01:21:30.302                             : :Chapter 26
01:24:17.969                             : :Chapter 27
01:26:51.706                             : :Chapter 28
Світлини




Джерело: &
Особиста оцінка: 0 - не дивився


 Трекер:    Зареєстрований   

Завантажити / скачати фільм українською



відео для новачків



 Зареєстрований:   2019-10-29 14:26
 Розмір:   3.03 GB 
 Оцінка фільму:   8.4/10 (Голосів: 7)
   
Ваш часовий пояс: GMT + 2 Години

Нова тема   Відповісти