Як продавати наркотики онлайн (швидко) (Сезон 1) / How to Sell Drugs Online (Fast) (Season 1) (2019) 720p Ukr/Ger

Нові коментарі

Нова тема   Відповісти
Автор Повідомлення
Anonymous 







2019-10-29 01:42  
Як продавати наркотики онлайн (швидко) (Сезон 1) / How to Sell Drugs Online (Fast) (Season 1) (2019) 720p Ukr/Ger

Як продавати наркотики онлайн (швидко) (Сезон 1) / How to Sell Drugs Online (Fast) (Season 1) (2019) 720p Ukr/Ger


Жанр: комедія, кримінальний, драма
Країна: Німеччина



Кінокомпанія: Bildundtonfabrik, Netflix
Режисер: Ларс Монтаг
Актори: Максиміліан Мундт, Данило Камбер, Лена Кленке, Даміан Хардунг, Леоні Весслоу, Луна Баптісте Шаллер, Роланд Рібелінг, Жоліна Амелі Трінкс, Ульрік Фолкертс, Ізабель Шосніг, Стефані Рейнспергер, Хеннінг Фішер, Рубен Брінкман, Флорентіт Вілл

Сюжет:
У сірому і сумному житті хлопця на ім'я Моріц трапляється воістину переломний момент. Адже його єдина радість — дівчина Ліза, несподівано заявляє, що хотіла б взяти паузу у відносинах, при цьому нічого не пояснивши. Крім того, тепер вона проводить багато часу в компанії Дена, шкільної знаменитості, а за сумісництвом дрібного наркодилера. Намагаючись зробити все можливе і неможливе для того, щоб знову завоювати увагу коханої, головний герой разом зі своїм кращим другом Ленні організовує власний наркобізнес, який згодом досягає колосальних масштабів.


Тривалість: 1 серія: ~ 30 хв. (цілком серій: 6)
Перелік серій
1. Nerd Today, Boss Tomorrow
2. Life's Not Fair, Get Used to It
3. Failure is Not an Option
4. If This is Reality, I'm Not Interested
5. Score Big or Don't Score at All
6. If You Are the Smartest One in the Room, You're in the Wrong Room
Якість:
Відео:
кодек:
розмір кадру: 1280 х 720
бітрейт: 1471 кб/с

Аудіо # 1:
мова: українська
переклад: багатоголосий закадровий
кодек: 2.0
бітрейт: 192 кб/с

Аудіо # 2:
мова: німецька
переклад: оригінал
кодек: 2.0
бітрейт: 159 кб/с

Джерело озвучення:
DniproFilm
Info
General
Unique ID : 252480802136921193350137823381594808871 (0xBDF208A1FE9A40601D3F730E500BA227)
Complete name : How to Sell Drugs Online (Fast) S01E01 (2019) 720p [Ukr.Ger] [Hurtom].
Format :
Format version : Version 4
File size : 423 MiB
Duration : 32 min 24 s
Overall bit rate : 1 826 kb/s
Movie name : Як продавати наркотики онлайн (швидко) (Сезон 1, серія 1) (2019)
Encoded date : UTC 2019-10-26 20:57:23
Writing application : v30.1.0 ('Forever And More') 64-bit
Writing library : libebml v1.3.6 + v1.4.9
Cover : Yes
Attachments : cover.jpg

Video
ID : 1
Format : AVC
Format/Info : Advanced Video Codec
Format profile : [email protected]
Format settings : CABAC / 4 Ref Frames
Format settings, CABAC : Yes
Format settings, ReFrames : 4 frames
Codec ID : V_MPEG4/ISO/AVC
Duration : 32 min 24 s
Bit rate : 1 471 kb/s
Width : 1 280 pixels
Height : 720 pixels
Display aspect ratio : 16:9
Frame rate mode : Constant
Frame rate : 25.000 FPS
Color space : YUV
Chroma subsampling : 4:2:0
Bit depth : 8 bits
Scan type : Progressive
Bits/(Pixel*Frame) : 0.064
Stream size : 341 MiB (81%)
Writing library : core 155 r2893 b00bcaf
Encoding settings : cabac=1 / ref=2 / deblock=1:0:0 / analyse=0x1:0x111 / me=hex / subme=6 / psy=1 / psy_rd=1.00:0.00 / mixed_ref=1 / me_range=16 / chroma_me=1 / trellis=1 / 8x8dct=0 / cqm=0 / deadzone=21,11 / fast_pskip=1 / chroma_qp_offset=-2 / threads=6 / lookahead_threads=1 / sliced_threads=0 / nr=0 / decimate=1 / interlaced=0 / bluray_compat=0 / constrained_intra=0 / bframes=3 / b_pyramid=2 / b_adapt=1 / b_bias=0 / direct=1 / weightb=1 / open_gop=0 / weightp=1 / keyint=250 / keyint_min=25 / scenecut=40 / intra_refresh=0 / rc_lookahead=30 / rc=crf / mbtree=1 / crf=22.0 / qcomp=0.60 / qpmin=0 / qpmax=69 / qpstep=4 / vbv_maxrate=20000 / vbv_bufsize=25000 / crf_max=0.0 / nal_hrd=none / filler=0 / ip_ratio=1.40 / aq=1:1.00
Language : German
Default : Yes
Forced : No
Color range : Limited
Color primaries : BT.709
Transfer characteristics : BT.709
Matrix coefficients : BT.709

Audio #1
ID : 2
Format : AC-3
Format/Info : Audio Coding 3
Commercial name : Dolby Digital
Codec ID : A_AC3
Duration : 32 min 24 s
Bit rate mode : Constant
Bit rate : 192 kb/s
Channel(s) : 2 channels
Channel layout : L R
Sampling rate : 48.0 kHz
Frame rate : 31.250 FPS (1536 SPF)
Bit depth : 16 bits
Compression mode : Lossy
Delay relative to video : -21 ms
Stream size : 44.5 MiB (11%)
Language : Ukrainian
Service kind : Complete Main
Default : Yes
Forced : Yes

Audio #2
ID : 3
Format : LC
Format/Info : Advanced Audio Codec Low Complexity
Codec ID : A_AAC-2
Duration : 32 min 24 s
Bit rate : 159 kb/s
Channel(s) : 2 channels
Channel layout : L R
Sampling rate : 48.0 kHz
Frame rate : 46.875 FPS (1024 SPF)
Compression mode : Lossy
Stream size : 37.0 MiB (9%)
Title : Stereo
Language : German
Default : No
Forced : No
Скріншоти





Джерело:


Авторський реліз (завантажувати можна без реєстрації)
 Трекер:    Зареєстрований   

Завантажити / скачати серіал українською



відео для новачків



 Зареєстрований:   2019-10-29 01:42
 Розмір:   2 GB 
 Оцінка серіалу:   9.8/10 (Голосів: 13)
   
HorosheKino 
Свій


З нами з: 17.10.19
Востаннє: 02.12.20
Повідомлень: 50

2019-10-29 12:00  
Ого, цілий сезон одразу! Спасибі! Гляну)
leicheman 
Відео Гуртом - фільмокрай
Відео Гуртом - фільмокрай


З нами з: 03.07.14
Востаннє: 02.12.20
Повідомлень: 5702

2019-10-29 15:16  
Неочікувано, але досить прикольний серіал. 8/10
toppu 
Попереджень: 1
Попереджень: 1 


З нами з: 20.03.15
Востаннє: 02.12.20
Повідомлень: 43

2020-01-08 09:58  
глянув, бо думав трохи Дойч згадати - але побачивши англомовність всього переписування у серіалі - розчарувався((
Хоча, для глобалізованої молоді повинно бути норм..

bogdanmtv 
Частий відвідувач


З нами з: 02.01.13
Востаннє: 01.12.20
Повідомлень: 48

2020-07-21 20:07  
Чи буде перекладено 2гий сезон? Сьогодні вийшовHappy
Ваш часовий пояс: GMT + 2 Години

Нова тема   Відповісти