Чужі проти Хижака: Реквієм [Розширена версія] / AVPR: Aliens vs Predator - Requiem [Extended Cut] (2007) Remux 1080p Ukr/Eng | Sub Ukr/Eng

Нові коментарі

Нова тема   Відповісти
Автор Повідомлення
MakRA 
VIP


З нами з: 11.11.18
Востаннє: 05.08.20
Повідомлень: 1088

2019-10-29 01:21  
Чужі проти Хижака: Реквієм [Розширена версія] / AVPR: Aliens vs Predator - Requiem [Extended Cut] (2007) Remux 1080p Ukr/Eng | Sub Ukr/Eng


Український постер:

Альтернативні обкладинки:






Жанр: екшн, жахи, фантастика
Країна: США



Кінокомпанія: Twentieth Century Fox, Davis Entertainment, Brandywine Productions, Dune Entertainment
Режисер: Колін Штраус [Colin Strause], Грег Штраус [Greg Strause]
Актори: Стівен Паскуаль [Steven Pasquale], Рейко Ейлсворт [Reiko Aylesworth], Джон Ортіс [John Ortiz], Джонні Льюіс [Johnny Lewis], Еріель Гейд [Ariel Gade], Крістен Хагер [Kristen Hager], Сем Траммелл [Sam Trammell], Роберт Джой [Robert Joy], Девід Петкау [David Paetkau], Том Вудрафф мол. [Tom Woodruff Jr.]

Сюжет:
Атакований Предалієном, моторошним гібридом Хижака й Чужого, корабель Хижаків зазнає аварії в лісах, які оточують маленьке техаське містечко. І доки на сигнал про допомогу, надісланий у момент падіння, поспішає підкріплення, Чужі встигають інфікувати половину населення міста...



Тривалість: 01:41:05
Якість: Remux 1080p [Extended Cut]
Відео:
кодек:
розмір кадру: 1920 х 1080
бітрейт: 27,6 Mб/с

Аудіо # 1:
мова: українська
переклад: професійний дубльований
кодек: 5.1
бітрейт: 384 кб/с

Аудіо # 2:
мова: англійська
переклад: оригінал
кодек: -HD MA 5.1
бітрейт: 4318 кб/с

Аудіо # 3:
мова: англійська
переклад: оригінал
кодек: 5.1
бітрейт: 448 кб/с

Субтитри # 1: (Full)
мова: українська
тип: програмні (м'які)
формат: *.srt

Субтитри # 2: (Full)
мова: англійська
тип: програмні (м'які)
формат: *.srt

Субтитри # 3: (SDH)
мова: англійська
тип: пререндерні
формат: *.pgs
Info
General
Unique ID : 188642521561917815298629217593880999379 (0x8DEB3A6528FEE8D0A574B95C587BF5D3)
Complete name : N:\+Alien vs. Predator Movie Collection\AVPR Aliens vs Predator - Requiem [Extended Cut] (2007) Remux 1080p UkrEng Sub UkrEng [Hurtom].
Format :
Format version : Version 4
File size : 23.1 GiB
Duration : 1 h 41 min
Overall bit rate mode : Variable
Overall bit rate : 32.8 Mb/s
Movie name : Чужі проти Хижака: Реквієм [Розширена версія] / AVPR: Aliens vs Predator - Requiem [Extended Cut] (2007) Remux 1080p Ukr/Eng | Sub Ukr/Eng [Hurtom]
Encoded date : UTC 2019-10-28 21:14:08
Writing application : v25.0.0 ('Prog Noir') 64-bit
Writing library : libebml v1.3.6 + v1.4.9
Cover : Yes
Attachments : cover.jpg

Video
ID : 1
Format : AVC
Format/Info : Advanced Video Codec
Format profile : [email protected]
Format settings : CABAC / 4 Ref Frames
Format settings, CABAC : Yes
Format settings, Reference fra : 4 frames
Codec ID : V_MPEG4/ISO/AVC
Duration : 1 h 41 min
Bit rate mode : Variable
Bit rate : 27.6 Mb/s
Maximum bit rate : 37.0 Mb/s
Width : 1 920 pixels
Height : 1 080 pixels
Display aspect ratio : 16:9
Frame rate mode : Constant
Frame rate : 23.976 (24000/1001) FPS
Standard : NTSC
Color space : YUV
Chroma subsampling : 4:2:0
Bit depth : 8 bits
Scan type : Progressive
Bits/(Pixel*Frame) : 0.555
Stream size : 19.5 GiB (84%)
Title : AVPR: Aliens vs Predator - Requiem [Extended Cut] (2007) Remux 1080p Ukr/Eng | Sub Ukr/Eng [Hurtom]
Language : Ukrainian
Default : Yes
Forced : Yes
Color range : Limited
Color primaries : BT.709
Transfer characteristics : BT.709
Matrix coefficients : BT.709

Audio #1
ID : 2
Format : AC-3
Format/Info : Audio Coding 3
Commercial name : Dolby Digital
Codec ID : A_AC3
Duration : 1 h 41 min
Bit rate mode : Constant
Bit rate : 384 kb/s
Channel(s) : 6 channels
Channel layout : L R C LFE Ls Rs
Sampling rate : 48.0 kHz
Frame rate : 31.250 FPS (1536 SPF)
Bit depth : 16 bits
Compression mode : Lossy
Stream size : 278 MiB (1%)
Title : DUB [DVD] 5.1
Language : Ukrainian
Service kind : Complete Main
Default : Yes
Forced : Yes

Audio #2
ID : 3
Format : XLL
Format/Info : Digital Theater Systems
Commercial name : -HD Master Audio
Codec ID : A_DTS
Duration : 1 h 41 min
Bit rate mode : Variable
Bit rate : 4 318 kb/s
Channel(s) : 6 channels
Channel layout : C L R Ls Rs LFE
Sampling rate : 48.0 kHz
Frame rate : 93.750 FPS (512 SPF)
Bit depth : 24 bits
Compression mode : Lossless
Stream size : 3.05 GiB (13%)
Title : Original -HD MA 5.1
Language : English
Default : No
Forced : No

Audio #3
ID : 4
Format : AC-3
Format/Info : Audio Coding 3
Commercial name : Dolby Digital
Codec ID : A_AC3
Duration : 1 h 41 min
Bit rate mode : Constant
Bit rate : 448 kb/s
Channel(s) : 6 channels
Channel layout : L R C LFE Ls Rs
Sampling rate : 48.0 kHz
Frame rate : 31.250 FPS (1536 SPF)
Bit depth : 16 bits
Compression mode : Lossy
Stream size : 324 MiB (1%)
Title : Original 5.1
Language : English
Service kind : Complete Main
Default : No
Forced : No

Text #1
ID : 5
Format : UTF-8
Codec ID : S_TEXT/UTF8
Codec ID/Info : UTF-8 Plain Text
Duration : 1 h 31 min
Bit rate : 40 b/s
Count of elements : 650
Stream size : 26.9 KiB (0%)
Title : Ukr (Full)
Language : Ukrainian
Default : No
Forced : No

Text #2
ID : 6
Format : UTF-8
Codec ID : S_TEXT/UTF8
Codec ID/Info : UTF-8 Plain Text
Duration : 1 h 31 min
Bit rate : 27 b/s
Count of elements : 812
Stream size : 18.4 KiB (0%)
Title : Eng (Full)
Language : English
Default : No
Forced : No

Text #3
ID : 7
Format : PGS
Muxing mode : zlib
Codec ID : S_HDMV/PGS
Codec ID/Info : Picture based subtitle format used on BDs/HD-DVDs
Duration : 1 h 40 min
Bit rate : 43.2 kb/s
Count of elements : 2946
Stream size : 31.2 MiB (0%)
Title : Eng (SDH)
Language : English
Default : No
Forced : No
Скріншоти
Джерело: &
Висловлюю подяку п. Beffis і п. Тирік за звук, п. sando7 за українізований постер
Особиста оцінка: 8 - мені сподобалося


Золотий реліз (завантажене не впливає на рейтинг)
 Трекер:    Зареєстрований   

Завантажити / скачати фільм українською



відео для новачків



 Зареєстрований:   2019-10-29 01:21
 Розмір:   23.14 GB 
 Оцінка фільму:   9.5/10 (Голосів: 12)
   
[email protected] 
VIP


З нами з: 25.03.17
Востаннє: 02.08.20
Повідомлень: 542

2019-11-10 17:54  
Крутецький фільм
Ваш часовий пояс: GMT + 2 Години

Нова тема   Відповісти