Калоші щастя / Die Galoschen des Glücks (2018) 720p Ukr/Ger

Нові коментарі

Нова тема   Відповісти
Автор Повідомлення
Anonymous 







2019-10-28 13:53  
Калоші щастя / Die Galoschen des Glücks (2018) 720p Ukr/Ger

Калоші щастя / Die Galoschen des Glücks (2018) 720p Ukr/Ger


Жанр: драма, сімейний, казка
Країна: Німеччина



Кінокомпанія: Neue Schönhauser Filmproduktion
Актори: Йонас Лауенштайн, Луізе фон Фінк, Йозефіне Фосс, Анетте Фрір, Інка Фрідріх та ін.

Сюжет:
"Калоші щастя" - одна із найкращих оповідей Ганса Крістіана Андерсена.

Калоші ці мають властивість переносити кожного, хто одягне їх, в те місце або в умови того часу, які йому найбільше подобаються. Всі бажання людини, щодо часу або місця перебування будуть таким чином виконані, що людина стане нарешті щасливою!

Йоган - слуга великої княгині і відчайдушно хоче належати «тим, хто там нагорі». Покоївка Лісбет закохана в Йоганна і бажає лише, щоб він відповідав їй її почуттям. Добре, що міс Догляд та міс Удача поруч. Феї володіють "Калошами фортуни". Чи можуть вони допомогти обом виконати свої бажання?


Тривалість: 00:58:28
Якість:
Відео:
кодек:
розмір кадру: 1280 х 720
бітрейт: 3076 кб/с

Аудіо # 1:
мова: українська
переклад: професійний дубльований
кодек: 2.0
бітрейт: 192 кб/с

Аудіо # 2:
мова: німецька
переклад: оригінал
кодек: 2.0
бітрейт: 384 кб/с

Джерело озвучення:

(за запис з ТБ дякуємо пану Serzh5)
Info
General
Unique ID : 271395884928927788527248164875922621868 (0xCC2CF23755297FF4D6A7FE10A574C5AC)
Complete name : Die Galoschen des Glücks (2018) 720 p [Ukr.Ger] [Hurtom].
Format :
Format version : Version 4
File size : 1.49 GiB
Duration : 58 min 28 s
Overall bit rate : 3 655 kb/s
Movie name : Калоші щастя (2018)
Encoded date : UTC 2019-10-28 08:32:43 / UTC 2018-12-26T14:36:56Z
Writing application : v30.1.0 ('Forever And More') 64-bit
Writing library : libebml v1.3.6 + v1.4.9 / Lavf57.7.2
Cover : Yes
Attachments : cover.jpg

Video
ID : 1
Format : AVC
Format/Info : Advanced Video Codec
Format profile : [email protected]
Format settings : CABAC / 5 Ref Frames
Format settings, CABAC : Yes
Format settings, ReFrames : 5 frames
Codec ID : V_MPEG4/ISO/AVC
Duration : 58 min 28 s
Bit rate : 3 076 kb/s
Width : 1 280 pixels
Height : 720 pixels
Display aspect ratio : 16:9
Frame rate mode : Constant
Frame rate : 25.000 FPS
Color space : YUV
Chroma subsampling : 4:2:0
Bit depth : 8 bits
Scan type : Progressive
Bits/(Pixel*Frame) : 0.134
Stream size : 1.26 GiB (84%)
Writing library : core 155 r2901 7d0ff22
Encoding settings : cabac=1 / ref=5 / deblock=1:-3:-3 / analyse=0x3:0x113 / me=umh / subme=7 / psy=1 / psy_rd=1.00:0.00 / mixed_ref=1 / me_range=16 / chroma_me=1 / trellis=1 / 8x8dct=1 / cqm=0 / deadzone=21,11 / fast_pskip=1 / chroma_qp_offset=-2 / threads=12 / lookahead_threads=2 / sliced_threads=0 / nr=0 / decimate=1 / interlaced=0 / bluray_compat=0 / constrained_intra=0 / bframes=3 / b_pyramid=2 / b_adapt=2 / b_bias=0 / direct=3 / weightb=1 / open_gop=0 / weightp=2 / keyint=250 / keyint_min=25 / scenecut=40 / intra_refresh=0 / rc_lookahead=50 / rc=crf / mbtree=1 / crf=20.0 / qcomp=0.60 / qpmin=0 / qpmax=69 / qpstep=4 / vbv_maxrate=62500 / vbv_bufsize=78125 / crf_max=0.0 / nal_hrd=none / filler=0 / ip_ratio=1.40 / aq=1:1.00
Language : German
Default : Yes
Forced : No
Color range : Limited
Color primaries : BT.709
Transfer characteristics : BT.709
Matrix coefficients : BT.709

Audio #1
ID : 2
Format : AC-3
Format/Info : Audio Coding 3
Commercial name : Dolby Digital
Codec ID : A_AC3
Duration : 58 min 28 s
Bit rate mode : Constant
Bit rate : 192 kb/s
Channel(s) : 2 channels
Channel layout : L R
Sampling rate : 48.0 kHz
Frame rate : 31.250 FPS (1536 SPF)
Bit depth : 16 bits
Compression mode : Lossy
Stream size : 80.3 MiB (5%)
Language : Ukrainian
Service kind : Complete Main
Default : Yes
Forced : Yes

Audio #2
ID : 3
Format : AC-3
Format/Info : Audio Coding 3
Commercial name : Dolby Digital
Codec ID : A_AC3
Duration : 58 min 28 s
Bit rate mode : Constant
Bit rate : 384 kb/s
Channel(s) : 2 channels
Channel layout : L R
Sampling rate : 48.0 kHz
Frame rate : 31.250 FPS (1536 SPF)
Bit depth : 16 bits
Compression mode : Lossy
Delay relative to video : 32 ms
Stream size : 161 MiB (11%)
Title : Stereo
Language : German
Service kind : Complete Main
Default : No
Forced : No
Скріншоти





Джерело:


 Трекер:    Зареєстрований   

Завантажити / скачати фільм українською



відео для новачків



 Зареєстрований:   2019-10-28 13:57
 Розмір:   1.49 GB 
 Оцінка фільму:   10/10 (Голосів: 8)
   
qarty1 
VIP


З нами з: 01.11.09
Востаннє: 21.09.20
Повідомлень: 384

2019-10-28 16:06  
постер нагадує німецьке доросле кіно -Happy
Аркадій Дзиґа 
VIP


З нами з: 09.10.14
Востаннє: 21.09.20
Повідомлень: 460

2019-11-04 10:04  
qarty1
Wide grin Wide grin Wide grin Wide grin Wide grin
ТЕТ - молодці!!! Гуртомівці - вищий клас!!!

Ваш часовий пояс: GMT + 2 Години

Нова тема   Відповісти