Форсаж: Гоббс та Шоу / Fast & Furious Presents: Hobbs & Shaw (2019) Remux 1080p Ukr/Eng | Sub Eng

Нові коментарі

Нова тема   Відповісти
Автор Повідомлення
kryk-v.ya. 
Попереджень: 1
Попереджень: 1 


З нами з: 14.02.14
Востаннє: 29.09.20
Повідомлень: 2250

2019-10-28 08:30  
Форсаж: Гоббс та Шоу / Fast & Furious Presents: Hobbs & Shaw (2019) Remux 1080p Ukr/Eng | Sub Eng

Форсаж: Гоббс та Шоу / Fast & Furious Presents: Hobbs & Shaw (2019) Remux 1080p Ukr/Eng | Sub Eng


Жанр: бойовик, пригодницький
Країна: Велика Британія, США



Кінокомпанія: Chris Morgan Productions, Seven Bucks Productions, Universal Pictures
Режисер: Девід Літч
Актори: Двейн Джонсон, Джейсон Стетгем, Ідріс Ельба, Ванесса Кірбі, Хелен Міррен, Ейса Гонсалес, Едді Марсан, Кліфф Кертіс

Сюжет:
Під час своєї чергової місії агент дипломатичної безпеки США Люк Хоббс вирішується створити малоймовірний союз зі злочинцем Декардом Шоу. На цей раз їм доведеться залишити свої непримиренні розбіжності позаду, щоб захистити світ від небезпечної біологічної атаки.


Тривалість: 02:16:42
Якість: Remux 1080p
Відео:
кодек:
розмір кадру: 1920х 1080
бітрейт: 28,7 Мбіт/с

Аудіо # 1:
мова: українська
переклад: професійний дубльований | студія LeDoyen
кодек: 2.0
бітрейт: 192 кб/с

Аудіо # 2:
мова: англійська
переклад: оригінал
кодек: TrueHD 7.1 + Atmos
бітрейт: 3141 кб/с

Субтитри # 1 (forced):
мова: українська
тип: програмні (м'які)
формат: *.srt

Субтитри # 2-4:
мова: англійська
тип: програмні (м'які) | full, SDH, SDH-Colored
формат: *.srt
Info
General
Unique ID : 243621815299979025351493600612744488912 (0xB747DADBFC6D38477B18CFDF0A48E7D0)
Complete name : E:\Fast & Furious Presents Hobbs & Shaw (2019) Remux 1080p (ukr_eng) (Hurtom).
Format :
Format version : Version 4 / Version 2
File size : 30.6 GiB
Duration : 2 h 16 min
Overall bit rate mode : Variable
Overall bit rate : 32.1 Mb/s
Encoded date : UTC 2019-10-28 11:02:04
Writing application : v25.0.0 ('Prog Noir') 64-bit
Writing library : libebml v1.3.6 + v1.4.9
Cover : Yes
Attachments : cover.jpg

Video
ID : 1
Format : AVC
Format/Info : Advanced Video Codec
Format profile : [email protected]
Format settings : CABAC / 4 Ref Frames
Format settings, CABAC : Yes
Format settings, ReFrames : 4 frames
Codec ID : V_MPEG4/ISO/AVC
Duration : 2 h 16 min
Bit rate mode : Variable
Bit rate : 28.7 Mb/s
Maximum bit rate : 37.3 Mb/s
Width : 1 920 pixels
Height : 1 080 pixels
Display aspect ratio : 16:9
Frame rate mode : Constant
Frame rate : 23.976 (24000/1001) FPS
Color space : YUV
Chroma subsampling : 4:2:0
Bit depth : 8 bits
Scan type : Progressive
Bits/(Pixel*Frame) : 0.576
Stream size : 27.4 GiB (89%)
Default : Yes
Forced : No

Audio #1
ID : 2
Format : AC-3
Format/Info : Audio Coding 3
Commercial name : Dolby Digital
Codec ID : A_AC3
Duration : 2 h 16 min
Bit rate mode : Constant
Bit rate : 192 kb/s
Channel(s) : 2 channels
Channel layout : L R
Sampling rate : 48.0 kHz
Frame rate : 31.250 FPS (1536 SPF)
Bit depth : 16 bits
Compression mode : Lossy
Stream size : 188 MiB (1%)
Title : DUB-iTunes (LeDoyen)
Language : Ukrainian
Service kind : Complete Main
Default : Yes
Forced : No

Audio #2
ID : 3
Format : MLP FBA 16-ch
Format/Info : Meridian Lossless Packing FBA with 16-channel presentation
Commercial name : TrueHD with Dolby Atmos
Codec ID : A_TRUEHD
Duration : 2 h 16 min
Bit rate mode : Variable
Bit rate : 3 141 kb/s
Maximum bit rate : 5 394 kb/s
Channel(s) : 8 channels
Channel layout : L R C LFE Ls Rs Lb Rb
Sampling rate : 48.0 kHz
Frame rate : 1 200.000 FPS (40 SPF)
Compression mode : Lossless
Stream size : 3.00 GiB (10%)
Title : Original
Language : English
Default : No
Forced : No
Number of dynamic objects : 11
Bed channel count : 1 channel
Bed channel configuration : LFE

Text #1
ID : 4
Format : UTF-8
Codec ID : S_TEXT/UTF8
Codec ID/Info : UTF-8 Plain Text
Duration : 1 h 34 min
Bit rate : 0 b/s
Count of elements : 8
Stream size : 299 Bytes (0%)
Title : forced
Language : Ukrainian
Default : Yes
Forced : No

Text #2
ID : 5
Format : UTF-8
Codec ID : S_TEXT/UTF8
Codec ID/Info : UTF-8 Plain Text
Duration : 2 h 16 min
Bit rate : 72 b/s
Count of elements : 1916
Stream size : 72.1 KiB (0%)
Title : full
Language : English
Default : No
Forced : No

Text #3
ID : 6
Format : UTF-8
Codec ID : S_TEXT/UTF8
Codec ID/Info : UTF-8 Plain Text
Duration : 2 h 16 min
Bit rate : 76 b/s
Count of elements : 2194
Stream size : 76.7 KiB (0%)
Title : SDH
Language : English
Default : No
Forced : No

Text #4
ID : 7
Format : UTF-8
Codec ID : S_TEXT/UTF8
Codec ID/Info : UTF-8 Plain Text
Duration : 2 h 16 min
Bit rate : 76 b/s
Count of elements : 2194
Stream size : 76.5 KiB (0%)
Title : SDH -Colored
Language : English
Default : No
Forced : No

Menu
00:00:00.000 : en:00:00:00.000 / en:Глава 01
00:04:58.131 : en:00:04:58.131
00:13:43.489 : en:00:13:43.489
00:19:21.451 : en:00:19:21.451
00:26:45.979 : en:00:26:45.979
00:35:41.514 : en:00:35:41.514
00:40:13.244 : en:00:40:13.244
00:46:22.029 : en:00:46:22.029
00:51:34.216 : en:00:51:34.216
00:57:51.801 : en:00:57:51.801
01:01:53.251 : en:01:01:53.251
01:08:45.162 : en:01:08:45.162
01:14:22.833 : en:01:14:22.833
01:19:48.074 : en:01:19:48.074
01:24:59.260 : en:01:24:59.260
01:32:58.197 : en:01:32:58.197
01:38:48.922 : en:01:38:48.922
01:46:32.969 : en:01:46:32.969
01:53:29.594 : en:01:53:29.594
02:01:14.809 : en:02:01:14.809


Джерело: &
Особиста оцінка: ще не дивився


Золотий реліз (завантажене не впливає на рейтинг)
 Трекер:    Зареєстрований   

Завантажити / скачати фільм українською



відео для новачків



 Зареєстрований:   2019-10-28 17:29
 Розмір:   30.61 GB 
 Оцінка фільму:   8.3/10 (Голосів: 19)
   
bot 
робот


З нами з: 30.09.07
Востаннє: 26.05.05
Повідомлень: 25645

2019-10-28 17:29  
Тему перенесено з Анонси релізів до форуму Фільми в HD


kryk-v.ya.

Soncezahyst 
Частий відвідувач


З нами з: 12.05.19
Востаннє: 23.09.20
Повідомлень: 46

2019-11-01 01:09  
Дуже гарно
Ваш часовий пояс: GMT + 2 Години

Нова тема   Відповісти