Формула 1. Сезон 2019. Етап 18. Гран-Прі Мексики. Гонка (27.10.2019) 1080p 2xUkr

Нові коментарі

Нова тема   Відповісти
Автор Повідомлення
sergiyko.5 
VIP


З нами з: 25.02.16
Востаннє: 26.10.20
Повідомлень: 3618

2019-10-28 00:29  
Формула 1. Сезон 2019. Етап 18. Гран-Прі Мексики. Гонка (27.10.2019) 1080p 2xUkr


Формула 1. Сезон 2019. Етап 18. Гран-Прі Мексики. Гонка (27.10.2019) 1080p 2xUkr

Жанр: Перегони Формули 1
Країна: Мексика
Телеканал: F1UA
Коментатор: Максим Подзігун, Роман Гончаров

Опис:
Гонка 18 етапу Гран-Прі Мексики 2019 року.


Якість:

Відео: кодек: розмір кадру: 1920 х 1080 бітрейт: 4500 кб/с
Аудіо 1: мова: українська кодек: 2.0 бітрейт: 160 кб/с
Аудіо 2: мова: українська кодек: 2.0 бітрейт: 160 кб/с
Тривалість:
02:11:41
Про файл:
General
Unique ID : 258527515130325422131907993509439744616 (0xC27E9699C392B6888BF267F4D5702A68)
Complete name : D:\Documents\Torrents\SPORT\F1.2019.18.Mexico.Race.1080p..Ukr.
Format :
Format version : Version 4
File size : 4.44 GiB
Duration : 2 h 11 min
Overall bit rate : 4 825 kb/s
Movie name : F1 2019 18 Mexico Race by sergiyko
Encoded date : UTC 2019-10-27 22:22:33
Writing application : v38.0.0 ('The Silent Type') 64-bit
Writing library : libebml v1.3.9 + v1.5.2

Video
ID : 1
Format : AVC
Format/Info : Advanced Video Codec
Format profile : [email protected]
Format settings : CABAC / 2 Ref Frames
Format settings, CABAC : Yes
Format settings, Reference : 2 frames
Format settings, GOP : M=3, N=50
Codec ID : V_MPEG4/ISO/AVC
Duration : 2 h 11 min
Bit rate mode : Constant
Bit rate : 4 500 kb/s
Width : 1 920 pixels
Height : 1 080 pixels
Display aspect ratio : 16:9
Frame rate mode : Constant
Frame rate : 25.000 FPS
Color space : YUV
Chroma subsampling : 4:2:0
Bit depth : 8 bits
Scan type : Progressive
Bits/(Pixel*Frame) : 0.087
Stream size : 4.14 GiB (93%)
Language : English
Default : Yes
Forced : No
Color range : Limited
Color primaries : BT.709
Transfer characteristics : BT.709
Matrix coefficients : BT.470 System B/G

Audio #1
ID : 2
Format : LC
Format/Info : Advanced Audio Codec Low Complexity
Codec ID : A_AAC-2
Duration : 2 h 11 min
Bit rate : 159 kb/s
Channel(s) : 2 channels
Channel layout : L R
Sampling rate : 48.0 kHz
Frame rate : 46.875 FPS (1024 SPF)
Compression mode : Lossy
Delay relative to video : 4 ms
Stream size : 150 MiB (3%)
Title : Максим Подзігун
Language : Ukrainian
Default : Yes
Forced : No

Audio #2
ID : 3
Format : LC
Format/Info : Advanced Audio Codec Low Complexity
Codec ID : A_AAC-2
Duration : 2 h 11 min
Bit rate : 160 kb/s
Channel(s) : 2 channels
Channel layout : L R
Sampling rate : 44.1 kHz
Frame rate : 43.066 FPS (1024 SPF)
Compression mode : Lossy
Delay relative to video : 11 ms
Stream size : 151 MiB (3%)
Title : Роман Гончаров
Language : Ukrainian
Default : No
Forced : No
Скріншоти:


Запис/зведення: sergiyko


Золотий реліз (завантажене не впливає на рейтинг)
 Трекер:    Зареєстрований   

Завантажити / скачати торрент



відео для новачків



 Зареєстрований:   2019-10-28 00:29
 Розмір:   4.44 GB 
 Оцінка:   10/10 (Голосів: 19)
   
forsage29 
Новенький


З нами з: 24.07.12
Востаннє: 25.10.20
Повідомлень: 20

2019-10-28 07:52  
Дуже дякую.!
kost.solo 
Новенький


З нами з: 10.01.18
Востаннє: 26.10.20
Повідомлень: 1

2019-10-28 15:38  
Дуже вдячний, що не втомлюєтеся радувати нас оперативним відео ))))
Ваш часовий пояс: GMT + 2 Години

Нова тема   Відповісти