Карнівал Роу (Сезон 1, серія 1-3) / Carnival Row (Season 1, Episode 1-3) (2019) Ukr/Eng

Нові коментарі

Нова тема   Відповісти
Автор Повідомлення
Anonymous 







2019-10-27 19:06  


Карнівал Роу (Сезон 1, серія 1-3) / Carnival Row (Season 1, Episode 1-3) (2019) Ukr/Eng

Карнівал Роу (Сезон 1, серія 1-3) / Carnival Row (Season 1, Episode 1-3) (2019) Ukr/Eng


Альтернативні постери

Карнівал Роу (Сезон 1, серія 1-3) / Carnival Row (Season 1, Episode 1-3) (2019) Ukr/Eng
Карнівал Роу (Сезон 1, серія 1-3) / Carnival Row (Season 1, Episode 1-3) (2019) Ukr/Eng


Подяка за постери : mrgalser


Жанр: детектив, трилер, фентезі, серіал
Країна: США



Кінокомпанія: Amazon Studios, Legendary Television, Stillking Films
Режисер: Анна Ферстер, Енді Годдар, Пол МакГіган
Актори: Орландо Блум, Кара Делевінь, Саймон Макберні, Темзін Мёрчант, Девід Гясі, Ендрю Гауер, Карла Кроум, Арті Фрушан, Індіра Варма, Джаред Харріс, Джеймі Харріс, Трейсі Уілкінсон, Мейв Дермоді, Анна Раст, ваджу Алі, Керолайн Форд, Марк Льюїс Джонс, Ліенн Бест, Еріон Бакарі, Брайан Каспе

Сюжет:
Карнівал Роу розповідає про міфічних істот, які залишили розтерзану війною батьківщину і осіли у місті, де люди не особливо раді іммігрантам. У центрі сюжету - розслідування серії таємничих вбивств, які можуть похитнути і без того крихке перемир'я.


Тривалість: 1 серія: ~55:00 (цілком серій: 3 із 8)
Перелік серій
01. Some Dark God Wakes
02. Aisling
03. Kingdoms of the Moon
04. The Joining of Unlike Things
05. Grieve No More
06. Unaccompanied Fae
07. The World to Come
08. The Gloaming
Якість:
Відео:
кодек:
розмір кадру: 720x304
бітрейт: ~1359-2010 кб/с

Аудіо # 1:
мова: українська
кодек: 5.1
бітрейт: 384 кб/с
переклад: багатоголосий закадровий | DubLiCat (Olegolas, Оля Ілєнко, Тетяна Рябова, Олександра Ісаєнко, Євгеній Тітомир)

Аудіо # 2:
мова: англійська
переклад: оригінал
кодек: 5.1
бітрейт: 448 кб/с



Шукайте нашу сторінку на FaceBook: DubLcat


Посилання на ТРЕЙЛЕР
Info
Код:
General
Complete name                            : Carnival Row (2019) Season 1 [UKR_ENG] [Hurtom]\Carnival.Row.S01E01.2019..Ukr.Eng.[Hurtom].avi
Format                                   : AVI
Format/Info                              : Audio Video Interleave
File size                                : 958 MiB
Duration                                 : 1 h 0 min
Overall bit rate                         : 2 210 kb/s
Movie name                               : Some Dark God Wakes
Part/Position                            : 1
Writing application                      : Lavf58.20.100

Video
ID                                       : 0
Format                                   : MPEG-4 Visual
Format profile                           : Advanced [email protected]
Format settings                          : BVOP1
Format settings, BVOP                    : 1
Format settings, QPel                    : No
Format settings, GMC                     : No warppoints
Format settings, Matrix                  : Default (H.263)
Codec ID                                 :
Codec ID/Hint                            :
Duration                                 : 1 h 0 min
Bit rate                                 : 1 361 kb/s
Width                                    : 720 pixels
Height                                   : 304 pixels
Display aspect ratio                     : 2.40:1
Frame rate                               : 23.976 (24000/1001) FPS
Color space                              : YUV
Chroma subsampling                       : 4:2:0
Bit depth                                : 8 bits
Scan type                                : Progressive
Compression mode                         : Lossy
Bits/(Pixel*Frame)                       : 0.259
Stream size                              : 590 MiB (62%)
Writing library                          : 67

Audio #1
ID                                       : 1
Format                                   : AC-3
Format/Info                              : Audio Coding 3
Commercial name                          : Dolby Digital
Codec ID                                 : 2000
Duration                                 : 1 h 0 min
Bit rate mode                            : Constant
Bit rate                                 : 384 kb/s
Channel(s)                               : 6 channels
Channel layout                           : L R C LFE Ls Rs
Sampling rate                            : 48.0 kHz
Frame rate                               : 31.250 FPS (1536 SPF)
Bit depth                                : 16 bits
Compression mode                         : Lossy
Stream size                              : 166 MiB (17%)
Alignment                                : Aligned on interleaves
Interleave, duration                     : 32  ms (0.77 video frame)
Title                                    : 5.1 @ 384kbps - Ukrainian
Service kind                             : Complete Main

Audio #2
ID                                       : 2
Format                                   : AC-3
Format/Info                              : Audio Coding 3
Commercial name                          : Dolby Digital
Codec ID                                 : 2000
Duration                                 : 1 h 0 min
Bit rate mode                            : Constant
Bit rate                                 : 448 kb/s
Channel(s)                               : 6 channels
Channel layout                           : L R C LFE Ls Rs
Sampling rate                            : 48.0 kHz
Frame rate                               : 31.250 FPS (1536 SPF)
Bit depth                                : 16 bits
Compression mode                         : Lossy
Stream size                              : 194 MiB (20%)
Alignment                                : Aligned on interleaves
Interleave, duration                     : 32  ms (0.77 video frame)
Title                                    : E- 5.1 @ 640kbps - Original
Service kind                             : Complete Main
Скріншоти




Джерело:
Особиста оцінка: 8 - мені сподобалося


Авторський реліз (завантажувати можна без реєстрації)
 Трекер:    Зареєстрований   

Завантажити / скачати серіал українською



відео для новачків



 Зареєстрований:   2019-12-02 14:15
 Розмір:   2.74 GB 
 Оцінка серіалу:   9.9/10 (Голосів: 26)
   
бронн 
Частий відвідувач


З нами з: 21.10.16
Востаннє: 12.12.19
Повідомлень: 38

2019-10-29 20:31  
Перша серія навіть дуже зайшла. Сподобалася історія. Чекаю на подальші серії
Anonymous 







2019-11-09 17:02  
+2
dniprodd 
Поважний учасник


З нами з: 31.10.09
Востаннє: 12.12.19
Повідомлень: 202

2019-11-10 08:11  
дуже зайшов перший сезон, доволі цікавий сценарій, хочеться дивитись далі, але коли ж буде другий сезон?
tpolit 
VIP


З нами з: 10.01.15
Востаннє: 14.12.19
Повідомлень: 512

2019-11-11 01:12  
Субтитри б не завадили. Українські чи оригінал - не важливо.
Anonymous 







2019-11-12 10:22  
tpolit написано:
Субтитри б не завадили. Українські чи оригінал - не важливо.

субтитри анг. є в інших релізах

djeks_ 
Новенький


З нами з: 11.10.13
Востаннє: 13.12.19
Повідомлень: 3

2019-11-15 08:42  
КОли очікувати на 3-ю серію?
djeks_ 
Новенький


З нами з: 11.10.13
Востаннє: 13.12.19
Повідомлень: 3

2019-11-27 11:44  
Коли продовження?
Arledin 
Новенький


З нами з: 01.03.10
Востаннє: 10.12.19
Повідомлень: 13

2019-12-05 19:45  
продовження буде?
Ваш часовий пояс: GMT + 2 Години

Нова тема   Відповісти