Карнівал Роу (Сезон 1, серія 1-3) / Carnival Row (Season 1, Episode 1-3) (2019) 1080p Ukr/Eng | Sub Eng

Нові коментарі

Нова тема   Відповісти
Автор Повідомлення
Anonymous 







2019-10-27 16:31  


Карнівал Роу (Сезон 1, серія 1-3) / Carnival Row (Season 1, Episode 1-3) (2019) 1080p Ukr/Eng | Sub Eng

Карнівал Роу (Сезон 1, серія 1-3) / Carnival Row (Season 1, Episode 1-3) (2019) 1080p Ukr/Eng | Sub Eng


Альтернативні постери

Карнівал Роу (Сезон 1, серія 1-3) / Carnival Row (Season 1, Episode 1-3) (2019) 1080p Ukr/Eng | Sub Eng
Карнівал Роу (Сезон 1, серія 1-3) / Carnival Row (Season 1, Episode 1-3) (2019) 1080p Ukr/Eng | Sub Eng


Подяка за постери : mrgalser


Жанр: детектив, трилер, фентезі, серіал
Країна: США



Кінокомпанія: Amazon Studios, Legendary Television, Stillking Films
Режисер: Анна Ферстер, Енді Годдар, Пол МакГіган
Актори: Орландо Блум, Кара Делевінь, Саймон Макберні, Темзін Мёрчант, Девід Гясі, Ендрю Гауер, Карла Кроум, Арті Фрушан, Індіра Варма, Джаред Харріс, Джеймі Харріс, Трейсі Уілкінсон, Мейв Дермоді, Анна Раст, ваджу Алі, Керолайн Форд, Марк Льюїс Джонс, Ліенн Бест, Еріон Бакарі, Брайан Каспе

Сюжет:
Карнівал Роу розповідає про міфічних істот, які залишили розтерзану війною батьківщину і осіли у місті, де люди не особливо раді іммігрантам. У центрі сюжету - розслідування серії таємничих вбивств, які можуть похитнути і без того крихке перемир'я.


Тривалість: 1 серія: ~55:00 (цілком серій: 3 із 8)
Перелік серій
01. Some Dark God Wakes
02. Aisling
03. Kingdoms of the Moon
04. The Joining of Unlike Things
05. Grieve No More
06. Unaccompanied Fae
07. The World to Come
08. The Gloaming
Якість: 1080p
Відео:
кодек:
розмір кадру: 1920 х 1080
бітрейт: ~6826 кб/с

Аудіо # 1:
мова: українська
кодек: 5.1
бітрейт: 384 кб/с
переклад: багатоголосий закадровий | DubLiCat (Olegolas, Оля Ілєнко, Тетяна Рябова, Олександра Ісаєнко, Євгеній Тітомир)

Аудіо # 2:
мова: англійська
переклад: оригінал
кодек: E- 5.1
бітрейт: 640 кб/с

Субтитри # 1-2: (Full, SDH)
мова: англійська
тип: програмні (м'які)
формат: *.srt



Шукайте нашу сторінку на FaceBook: DubLcat


Посилання на ТРЕЙЛЕР
Info
Код:
General
Complete name                            : Carnival Row (2019) Season 1 1080p [UKR_ENG] [Hurtom]\Carnival.Row.S01E01.2019..1080p.Ukr.Eng.[Hurtom].
Format                                   :
Format version                           : Version 4
File size                                : 3.33 GiB
Duration                                 : 1 h 0 min
Overall bit rate                         : 7 853 kb/s
Movie name                               : Carnival Row (2019) Season 1 1080p [UKR_ENG] [Hurtom] / Some Dark God Wakes
Track name/Position                      : 1
Track name/Total                         : 8
Description                              : A Fae, Vignette Stonemoss, takes refuge on a ship delivering her people from Tirnanoc to The Burgue and is taken in by Spurnroses. Inspector Rycroft "Philo" Philostrate tries to solve a series of murders among the Fae in The Burgue and discovers that there's more to the case than he ever believed possible.
Released date                            : 2019-08-30T12:00:00
Encoded date                             : UTC 2019-10-27 14:20:11
Writing application                      : v30.1.0 ('Forever And More') 64-bit
Writing library                          : libebml v1.3.6 + v1.4.9
Cover                                    : Yes
Attachments                              : cover.jpg

Video
ID                                       : 1
Format                                   : AVC
Format/Info                              : Advanced Video Codec
Format profile                           : [email protected]
Format settings                          : CABAC / 4 Ref Frames
Format settings, CABAC                   : Yes
Format settings, RefFrames               : 4 frames
Codec ID                                 : V_MPEG4/ISO/AVC
Duration                                 : 1 h 0 min
Bit rate                                 : 6 826 kb/s
Width                                    : 1 920 pixels
Height                                   : 1 080 pixels
Display aspect ratio                     : 16:9
Frame rate mode                          : Constant
Frame rate                               : 23.976 (24000/1001) FPS
Color space                              : YUV
Chroma subsampling                       : 4:2:0
Bit depth                                : 8 bits
Scan type                                : Progressive
Bits/(Pixel*Frame)                       : 0.137
Stream size                              : 2.89 GiB (87%)
Language                                 : English
Default                                  : Yes
Forced                                   : No
Color range                              : Limited
Color primaries                          : BT.709
Transfer characteristics                 : BT.709
Matrix coefficients                      : BT.709

Audio #1
ID                                       : 2
Format                                   : AC-3
Format/Info                              : Audio Coding 3
Commercial name                          : Dolby Digital
Codec ID                                 : A_AC3
Duration                                 : 1 h 0 min
Bit rate mode                            : Constant
Bit rate                                 : 384 kb/s
Channel(s)                               : 6 channels
Channel layout                           : L R C LFE Ls Rs
Sampling rate                            : 48.0 kHz
Frame rate                               : 31.250 FPS (1536 SPF)
Bit depth                                : 16 bits
Compression mode                         : Lossy
Stream size                              : 166 MiB (5%)
Title                                    : 5.1 @ 384kbps - Ukrainian
Language                                 : Ukrainian
Service kind                             : Complete Main
Default                                  : Yes
Forced                                   : No

Audio #2
ID                                       : 3
Format                                   : E-AC-3
Format/Info                              : Enhanced AC-3
Commercial name                          : Dolby Digital Plus
Codec ID                                 : A_EAC3
Duration                                 : 1 h 0 min
Bit rate mode                            : Constant
Bit rate                                 : 640 kb/s
Channel(s)                               : 6 channels
Channel layout                           : L R C LFE Ls Rs
Sampling rate                            : 48.0 kHz
Frame rate                               : 31.250 FPS (1536 SPF)
Compression mode                         : Lossy
Stream size                              : 277 MiB (8%)
Title                                    : E- 5.1 @ 640kbps - Original
Language                                 : English
Service kind                             : Complete Main
Default                                  : No
Forced                                   : No

Text #1
ID                                       : 4
Format                                   : UTF-8
Codec ID                                 : S_TEXT/UTF8
Codec ID/Info                            : UTF-8 Plain Text
Duration                                 : 57 min 31 s
Bit rate                                 : 63 b/s
Count of elements                        : 1002
Stream size                              : 26.9 KiB (0%)
Title                                    : Full
Language                                 : English
Default                                  : No
Forced                                   : No

Text #2
ID                                       : 5
Format                                   : UTF-8
Codec ID                                 : S_TEXT/UTF8
Codec ID/Info                            : UTF-8 Plain Text
Duration                                 : 58 min 20 s
Bit rate                                 : 63 b/s
Count of elements                        : 1016
Stream size                              : 27.0 KiB (0%)
Title                                    : SDH
Language                                 : English
Default                                  : No
Forced                                   : No

Menu
00:00:00.000                             : en:Amazon Original
00:00:05.000                             : en:Title Sequence
00:00:18.000                             : en:Opening Credits
00:00:29.000                             : en:The history of The Great War
00:01:49.000                             : en:Fleeing from Tirnanoc
00:08:00.000                             : en:Philo works on a case in The Burgue
00:14:29.000                             : en:The wreckage from the ship
00:15:22.000                             : en:Political leanings in The Burgue
00:19:02.000                             : en:Philo chases down a lead
00:20:45.000                             : en:Vignette's fate after the shipwreck
00:26:00.000                             : en:Philo attends a protest meeting
00:28:46.000                             : en:Philo experiences favoritism
00:31:48.000                             : en:Running errands leads to an old friend
00:37:55.000                             : en:Philo gets reprimanded
00:40:26.000                             : en:Vignette vows revenge
00:41:05.000                             : en:Greeting the new neighbors
00:42:51.000                             : en:Jonah has a little fun
00:45:22.000                             : en:Looking for a fish in the sea
00:50:34.000                             : en:Vignette comes for Philo
00:57:04.000                             : en:The darkness is coming...
00:58:33.000                             : en:End Credits
Скріншоти






Джерело:
Особиста оцінка: 8 - мені сподобалося


Авторський реліз (завантажувати можна без реєстрації)
 Трекер:    Зареєстрований   

Завантажити / скачати серіал українською



відео для новачків



 Зареєстрований:   2019-12-02 14:08
 Розмір:   9.4 GB 
 Оцінка серіалу:   9.3/10 (Голосів: 15)
   
Anonymous 







2019-11-09 17:03  
Episode +2
Anonymous 







2019-12-02 14:09  
Episode +3
Жока 
Забанено
Забанено


З нами з: 29.11.19
Востаннє: 07.12.19
Повідомлень: 36

2019-12-04 12:30  
В третій серії розкрили тему цицьок)
Arledin 
Новенький


З нами з: 01.03.10
Востаннє: 10.12.19
Повідомлень: 13

2019-12-05 19:46  
коли 4 серія?
Ваш часовий пояс: GMT + 2 Години

Нова тема   Відповісти