Формула 1. Сезон 2019. Етап 18. Гран-Прі Мексики. Кваліфікація (26.10.2019) 1080p Ukr/Eng/Int

Нові коментарі

Нова тема   Відповісти
Автор Повідомлення
sergiyko.5 
VIP


З нами з: 25.02.16
Востаннє: 24.10.20
Повідомлень: 3614

2019-10-27 00:57  
Формула 1. Сезон 2019. Етап 18. Гран-Прі Мексики. Кваліфікація (26.10.2019) 1080p Ukr/Eng/Int


Формула 1. Сезон 2019. Етап 18. Гран-Прі Мексики. Кваліфікація (26.10.2019) 1080p Ukr/Eng/Int

Жанр: Перегони Формули 1
Країна: Мексика
Телеканал: F1 TV
Коментатор: Максим Подзігун

Опис:
Кваліфікація 18 етапу Гран-Прі Мексики 2019 року.


Якість:

Відео: кодек: розмір кадру: 1920 х 1080 бітрейт: 5500 кб/с
Аудіо 1: мова: українська кодек: 2.0 бітрейт: 192 кб/с
Аудіо 2: мова: англійська кодек: 2.0 бітрейт: 70 кб/с
Аудіо 3: мова: інтершум кодек: 2.0 бітрейт: 70 кб/с

Примітка: до початку 4 хвилини український коментар відсутній.
Тривалість:
01:18:32
Про файл:
General
Unique ID : 178127919511087313665864355721626098018 (0x8602307D4A599D33110953E4967D9962)
Complete name : D:\Documents\Torrents\SPORT\F1.2019.18.Mexico.Qualifying.1080p..Ukr.Eng.Int.
Format :
Format version : Version 4
File size : 3.19 GiB
Duration : 1 h 18 min
Overall bit rate : 5 818 kb/s
Movie name : rip by sergiyko
Encoded date : UTC 2019-10-26 21:51:49
Writing application : v38.0.0 ('The Silent Type') 64-bit
Writing library : libebml v1.3.9 + v1.5.2

Video
ID : 1
Format : AVC
Format/Info : Advanced Video Codec
Format profile : [email protected]
Format settings : CABAC / 4 Ref Frames
Format settings, CABAC : Yes
Format settings, Reference : 4 frames
Format settings, GOP : M=4, N=50
Codec ID : V_MPEG4/ISO/AVC
Duration : 1 h 18 min
Bit rate mode : Constant
Bit rate : 5 500 kb/s
Width : 1 920 pixels
Height : 1 080 pixels
Display aspect ratio : 16:9
Frame rate mode : Constant
Frame rate : 25.000 FPS
Color space : YUV
Chroma subsampling : 4:2:0
Bit depth : 8 bits
Scan type : Progressive
Bits/(Pixel*Frame) : 0.106
Stream size : 3.02 GiB (95%)
Language : English
Default : Yes
Forced : No

Audio #1
ID : 2
Format : AC-3
Format/Info : Audio Coding 3
Commercial name : Dolby Digital
Codec ID : A_AC3
Duration : 1 h 18 min
Bit rate mode : Constant
Bit rate : 192 kb/s
Channel(s) : 2 channels
Channel layout : L R
Sampling rate : 48.0 kHz
Frame rate : 31.250 FPS (1536 SPF)
Bit depth : 16 bits
Compression mode : Lossy
Stream size : 108 MiB (3%)
Title : Максим Подзігун
Language : Ukrainian
Service kind : Complete Main
Default : Yes
Forced : Yes

Audio #2
ID : 3
Format : LC
Format/Info : Advanced Audio Codec Low Complexity
Codec ID : A_AAC-2
Duration : 1 h 18 min
Bit rate : 61.7 kb/s
Channel(s) : 2 channels
Channel layout : L R
Sampling rate : 44.1 kHz
Frame rate : 43.066 FPS (1024 SPF)
Compression mode : Lossy
Stream size : 34.6 MiB (1%)
Title : SkyF1 Commentary
Language : English
Default : No
Forced : No

Audio #3
ID : 4
Format : LC
Format/Info : Advanced Audio Codec Low Complexity
Codec ID : A_AAC-2
Duration : 1 h 18 min
Bit rate : 61.7 kb/s
Channel(s) : 2 channels
Channel layout : L R
Sampling rate : 44.1 kHz
Frame rate : 43.066 FPS (1024 SPF)
Compression mode : Lossy
Stream size : 34.6 MiB (1%)
Title : Natural / Team Radio
Default : No
Forced : No
Скріншоти:


Запис/зведення: sergiyko


Золотий реліз (завантажене не впливає на рейтинг)
 Трекер:    Зареєстрований   

Завантажити / скачати торрент



відео для новачків



 Зареєстрований:   2019-10-27 00:57
 Розмір:   3.19 GB 
 Оцінка:   10/10 (Голосів: 8)
   
Ваш часовий пояс: GMT + 2 Години

Нова тема   Відповісти