Формула 1. Сезон 2019. Етап 18. Гран-Прі Мексики. Кваліфікація (26.10.2019) 720p Ukr/Eng

Нові коментарі

Нова тема   Відповісти
Автор Повідомлення
sergiyko.5 
VIP


З нами з: 25.02.16
Востаннє: 24.10.20
Повідомлень: 3615

2019-10-26 23:30  
Формула 1. Сезон 2019. Етап 18. Гран-Прі Мексики. Кваліфікація (26.10.2019) 720p Ukr/Eng


Формула 1. Сезон 2019. Етап 18. Гран-Прі Мексики. Кваліфікація (26.10.2019) 720p Ukr/Eng

Жанр: Перегони Формули 1
Країна: Мексика
Телеканал: ESPN
Коментатор: Максим Подзігун

Опис:
Кваліфікація 18 етапу Гран-Прі Мексики 2019 року.


Якість:

Відео: кодек: розмір кадру: 1280 х 720 бітрейт: 3500 кб/с
Аудіо 1: мова: українська кодек: 2.0 бітрейт: 192 кб/с
Аудіо 2: мова: англійська кодек: 2.0 бітрейт: 160 кб/с

Примітка: до початку 3 хвилини коментар англійською мовою.
Тривалість:
01:12:19
Про файл:
General
Unique ID : 42343366735362952045693228397820997165 (0x1FDB0929CEB305B9DAD05BC7A1E96E2D)
Complete name : D:\Documents\Torrents\SPORT\F1.2019.18.Mexico.Qualifying.720p..Ukr.Eng.
Format :
Format version : Version 4
File size : 2.07 GiB
Duration : 1 h 12 min
Overall bit rate mode : Constant
Overall bit rate : 4 089 kb/s
Movie name : rip by sergiyko
Encoded date : UTC 2019-10-26 20:21:49
Writing application : v38.0.0 ('The Silent Type') 64-bit
Writing library : libebml v1.3.9 + v1.5.2

Video
ID : 1
Format : AVC
Format/Info : Advanced Video Codec
Format profile : [email protected]
Format settings : CABAC / 4 Ref Frames
Format settings, CABAC : Yes
Format settings, Reference : 4 frames
Codec ID : V_MPEG4/ISO/AVC
Duration : 1 h 12 min
Bit rate mode : Constant
Bit rate : 3 509 kb/s
Nominal bit rate : 5 000 kb/s
Width : 1 280 pixels
Height : 720 pixels
Display aspect ratio : 16:9
Frame rate mode : Constant
Frame rate : 59.940 (59940/1000) FPS
Original frame rate : 59.940 (60000/1001) FPS
Color space : YUV
Chroma subsampling : 4:2:0
Bit depth : 8 bits
Scan type : Progressive
Bits/(Pixel*Frame) : 0.064
Stream size : 1.77 GiB (86%)
Language : English
Default : Yes
Forced : No

Audio #1
ID : 2
Format : AC-3
Format/Info : Audio Coding 3
Commercial name : Dolby Digital
Codec ID : A_AC3
Duration : 1 h 12 min
Bit rate mode : Constant
Bit rate : 192 kb/s
Channel(s) : 2 channels
Channel layout : L R
Sampling rate : 48.0 kHz
Frame rate : 31.250 FPS (1536 SPF)
Bit depth : 16 bits
Compression mode : Lossy
Delay relative to video : -598 ms
Stream size : 99.3 MiB (5%)
Title : Максим Подзігун
Language : Ukrainian
Service kind : Complete Main
Default : Yes
Forced : Yes

Audio #2
ID : 3
Format : AC-3
Format/Info : Audio Coding 3
Commercial name : Dolby Digital
Codec ID : A_AC3
Duration : 1 h 12 min
Bit rate mode : Constant
Bit rate : 384 kb/s
Channel(s) : 6 channels
Channel layout : L R C LFE Ls Rs
Sampling rate : 48.0 kHz
Frame rate : 31.250 FPS (1536 SPF)
Bit depth : 16 bits
Compression mode : Lossy
Delay relative to video : -598 ms
Stream size : 199 MiB (9%)
Language : English
Service kind : Complete Main
Default : No
Forced : No
Скріншоти:


Запис/зведення: sergiyko


Золотий реліз (завантажене не впливає на рейтинг)
 Трекер:    Зареєстрований   

Завантажити / скачати торрент



відео для новачків



 Зареєстрований:   2019-10-26 23:30
 Розмір:   2.07 GB 
 Оцінка:   8.6/10 (Голосів: 5)
   
Ваш часовий пояс: GMT + 2 Години

Нова тема   Відповісти