Формула 1. Сезон 2019. Етап 18. Гран-Прі Мексики. Кваліфікація (26.10.2019) AVC Ukr/Eng

Нові коментарі

Нова тема   Відповісти
Останній раз роздавалося kamikadz17 (2020-07-12)
Автор Повідомлення
sergiyko.5 
VIP


З нами з: 25.02.16
Востаннє: 28.10.20
Повідомлень: 3638

2019-10-26 22:00  
Формула 1. Сезон 2019. Етап 18. Гран-Прі Мексики. Кваліфікація (26.10.2019) AVC Ukr/Eng


Формула 1. Сезон 2019. Етап 18. Гран-Прі Мексики. Кваліфікація (26.10.2019) AVC Ukr/Eng

Жанр: Перегони Формули 1
Країна: Мексика
Телеканал: F1 TV
Коментатор: Максим Подзігун

Опис:
Кваліфікація 18 етапу Гран-Прі Мексики 2019 року.


Якість:

Відео: кодек: розмір кадру: 1024 х 576 бітрейт: 2200 кб/с
Аудіо 1: мова: українська кодек: 2.0 бітрейт: 192 кб/с
Аудіо 2: мова: англійська кодек: 2.0 бітрейт: 160 кб/с

Примітка: до початку 3 хвилини коментар англійською мовою.
Тривалість:
01:13:59
Про файл:
General
Unique ID : 333511157051761468782378548387053477397 (0xFAE7E9940CF11130F7B1EA39FD969E15)
Complete name : D:\Documents\Torrents\SPORT\F1.2019.18.Mexico.Qualifying..Ukr.Eng.
Format :
Format version : Version 4
File size : 1.27 GiB
Duration : 1 h 13 min
Overall bit rate : 2 455 kb/s
Movie name : rip by sergiyko
Encoded date : UTC 2019-10-26 19:57:43
Writing application : v38.0.0 ('The Silent Type') 64-bit
Writing library : libebml v1.3.9 + v1.5.2

Video
ID : 1
Format : AVC
Format/Info : Advanced Video Codec
Format profile : [email protected]
Format settings : CABAC / 4 Ref Frames
Format settings, CABAC : Yes
Format settings, Reference : 4 frames
Format settings, GOP : M=4, N=50
Codec ID : V_MPEG4/ISO/AVC
Duration : 1 h 13 min
Bit rate mode : Constant
Bit rate : 2 200 kb/s
Width : 1 024 pixels
Height : 576 pixels
Display aspect ratio : 16:9
Frame rate mode : Constant
Frame rate : 25.000 FPS
Color space : YUV
Chroma subsampling : 4:2:0
Bit depth : 8 bits
Scan type : Progressive
Bits/(Pixel*Frame) : 0.149
Stream size : 1.14 GiB (90%)
Language : English
Default : Yes
Forced : No

Audio #1
ID : 2
Format : AC-3
Format/Info : Audio Coding 3
Commercial name : Dolby Digital
Codec ID : A_AC3
Duration : 1 h 13 min
Bit rate mode : Constant
Bit rate : 192 kb/s
Channel(s) : 2 channels
Channel layout : L R
Sampling rate : 48.0 kHz
Frame rate : 31.250 FPS (1536 SPF)
Bit depth : 16 bits
Compression mode : Lossy
Delay relative to video : -1 s 640 ms
Stream size : 102 MiB (8%)
Title : Максим Подзігун
Language : Ukrainian
Service kind : Complete Main
Default : Yes
Forced : Yes

Audio #2
ID : 3
Format : LC
Format/Info : Advanced Audio Codec Low Complexity
Codec ID : A_AAC-2
Duration : 1 h 13 min
Bit rate : 61.7 kb/s
Channel(s) : 2 channels
Channel layout : L R
Sampling rate : 44.1 kHz
Frame rate : 43.066 FPS (1024 SPF)
Compression mode : Lossy
Delay relative to video : -1 s 637 ms
Stream size : 32.6 MiB (3%)
Language : English
Default : No
Forced : No
Скріншоти:


Запис/зведення: sergiyko


Золотий реліз (завантажене не впливає на рейтинг)
 Трекер:    Зареєстрований   

Завантажити / скачати торрент



відео для новачків



 Зареєстрований:   2019-10-26 22:00
 Розмір:   1.27 GB 
 Оцінка:   9.8/10 (Голосів: 5)
   
zsl1424 
Новенький


З нами з: 17.03.19
Востаннє: 01.12.19
Повідомлень: 1

2019-10-26 22:14  
Піддайте газку на роздачі !
forsage29 
Новенький


З нами з: 24.07.12
Востаннє: 26.10.20
Повідомлень: 20

2019-10-26 22:16  
zsl1424
як тільки, так відразу)))

Ваш часовий пояс: GMT + 2 Години

Нова тема   Відповісти