Відчайдушна спроба / Desperate Measures (1998) AVC

Нові коментарі

Нова тема   Відповісти
Автор Повідомлення
Arsenfpu 
Відео Гуртом - фільмокрай
Відео Гуртом - фільмокрай


З нами з: 30.04.09
Востаннє: 22.11.19
Повідомлень: 6241

2019-10-26 21:43  
Відчайдушна спроба / Desperate Measures (1998) AVC

Відчайдушна спроба / Desperate Measures (1998) AVC


Жанр: екшн, драма, трилер
Країна: США



Кінокомпанія: TriStar Pictures, Mandalay Entertainment
Режисер: Барбет Шредер
Актори: Майкл Кітон, Енді Гарсія, Браян Кокс, Марсія Гей Харден, Джозеф Кросс

Сюжет:
Двоє людей із зовсім протилежними поглядами вступають в боротьбу. Поліцейський Френк Коннор стоїть перед складною дилемою. З одного боку, його син смертельно хворий і йому необхідна пересадка кісткового мозку. Але з іншого, єдиний підходящий донор Пітер Маккейб - жорстокий вбивця, засуджений до страти - здійснює втечу з шпиталю куди він був доставлений з в'язниці. Якщо Френк до кінця виконає свій обов'язок, злочинець загине, і тоді дитина приречена. Він може врятувати життя синові тільки зберігши життя вбивці, і в цій кривавій драмі в нього немає союзників: і злочинець і поліція проти нього. В кінцевому рахунку, і Коннор і Маккейб переслідують одну й ту ж мету - виживання, тільки якщо перший рятує чуже життя, то другий - своє.


Тривалість: 01:40:53
Якість:
Відео:
кодек:
розмір кадру: 1 024 х 576
бітрейт: 2 711 кб/с

Аудіо:
мова: українська
переклад: багатоголосий закадровий
кодек: 2.0
бітрейт: 192 кб/с
Про файл
Unique ID : 131241656819215333432504111106273556271 (0x62BC394337C0C7FBC59D7038D6A3B72F)
Complete name : C:\Desperate Measures (1998) AVC [Hurtom].
Format :
Format version : Version 4 / Version 2
File size : 2.05 GiB
Duration : 1 h 40 min
Overall bit rate : 2 903 kb/s
Movie name : Відчайдушна спроба / Desperate Measures (1998)
Encoded date : UTC 2019-10-26 17:36:53
Writing application : v21.0.0 ('Tardigrades Will Inherit The Earth') 32-bit
Writing library : libebml v1.3.5 + v1.4.8
Cover : Yes
Attachments : cover.jpg

Video
ID : 1
Format : AVC
Format/Info : Advanced Video Codec
Format profile : [email protected]
Format settings, CABAC : Yes
Format settings, ReFrames : 10 frames
Codec ID : V_MPEG4/ISO/AVC
Duration : 1 h 40 min
Bit rate : 2 711 kb/s
Width : 1 024 pixels
Height : 576 pixels
Display aspect ratio : 16:9
Frame rate mode : Constant
Frame rate : 23.976 (24000/1001) FPS
Color space : YUV
Chroma subsampling : 4:2:0
Bit depth : 8 bits
Scan type : Progressive
Bits/(Pixel*Frame) : 0.192
Stream size : 1.91 GiB (93%)
Writing library : core 157 r2969 d4099dd
Encoding settings : cabac=1 / ref=10 / deblock=1:-2:-2 / analyse=0x3:0x133 / me=umh / subme=11 / psy=1 / psy_rd=1.00:0.15 / mixed_ref=1 / me_range=48 / chroma_me=1 / trellis=2 / 8x8dct=1 / cqm=0 / deadzone=21,11 / fast_pskip=0 / chroma_qp_offset=-3 / threads=6 / lookahead_threads=1 / sliced_threads=0 / nr=0 / decimate=0 / interlaced=0 / bluray_compat=0 / constrained_intra=0 / bframes=10 / b_pyramid=2 / b_adapt=2 / b_bias=0 / direct=3 / weightb=1 / open_gop=0 / weightp=2 / keyint=240 / keyint_min=24 / scenecut=40 / intra_refresh=0 / rc=2pass / mbtree=0 / bitrate=2711 / ratetol=1.0 / qcomp=0.70 / qpmin=0 / qpmax=69 / qpstep=4 / cplxblur=20.0 / qblur=0.5 / ip_ratio=1.40 / pb_ratio=1.30 / aq=3:0.80
Default : Yes
Forced : No
Color range : Limited
Color primaries : BT.709
Transfer characteristics : BT.709
Matrix coefficients : BT.709

Audio
ID : 2
Format : AC-3
Format/Info : Audio Coding 3
Mode extension : CM (complete main)
Format settings, Endianness : Big
Codec ID : A_AC3
Duration : 1 h 40 min
Bit rate mode : Constant
Bit rate : 192 kb/s
Channel(s) : 2 channels
Channel positions : Front: L R
Sampling rate : 48.0 kHz
Frame rate : 31.250 FPS (1536 spf)
Compression mode : Lossy
Stream size : 139 MiB (7%)
Title : Новий
Language : Ukrainian
Default : Yes
Forced : No
Скріншоти














Джерело:
За українську доріжку дякую п. urij546724, NemoInFire
Особиста оцінка: не дивився


Срібний реліз (на рейтинг впливає 50% завантаженого)
 Трекер:    Зареєстрований   

Завантажити / скачати фільм українською



відео для новачків



 Зареєстрований:   2019-10-26 21:43
 Розмір:   2.05 GB 
 Оцінка фільму:   10/10 (Голосів: 4)
   
Інші релізи
   Відчайдушна спроба / Desperate Measures (1998) NemoInFire  2 / 0   1.54 GB   2012-06-24 19:04 
Ваш часовий пояс: GMT + 2 Години

Нова тема   Відповісти