Вчора / Yesterday (2019) 1080p H.265 Ukr/Eng | Sub Eng

Нові коментарі

Нова тема   Відповісти
Автор Повідомлення
Anonymous 







2019-10-26 20:17  
Вчора / Yesterday (2019) 1080p H.265 Ukr/Eng | Sub Eng

Вчора / Yesterday (2019) 1080p H.265 Ukr/Eng | Sub Eng


Жанр: комедія, мелодрама, музика, мюзикл, фентезі
Країна: Велика Британія, Росія, Китай
Кінокомпанія: Decibel Films, Etalon Film, Perfect World Pictures
Режисер: Денні Бойл
Актори: Гімеш Патель, Лілі Джеймс, Софі Ді Мартіно, Елліз Шаппелль, Міра Сайал, Гаррі Мішель, Вінсент Франклін, Джоель Фрай, Майкл Ківанука

Сюжет:
Уявіть собі світ, де всі забули про «The Beatles»… Молодий талановитий музикант розуміє – не можна втрачати такий шанс і видає хіти легендарного гурту за свої власні. Концерти, шоу, записи, слава і визнання! І це не сон, а нова комедія від оскароносного режисера Денні Бойла.

Тривалість: 01:56:14
Якість:

Відео:
кодек: H.265 (HEVC)
розмір кадру: 1920 x 804
бітрейт: 8 964 кб/с
бітова глибина: 10 біт

Увага! Перед завантаженням переконайтесь, що ваш пристрій відтворення (та/або ПЗ) підтримує H.265 (HEVC)

Аудіо # 1:
мова: українська
переклад: професійний дубльований
кодек: AC-3 2.0
бітрейт: 192 кб/с

Аудіо # 2:
мова: англійська
переклад: оригінал
кодек: 5.1
бітрейт: 1510 кб/с

Аудіо # 3:
мова: англійська
переклад: оригінал | коментарі
кодек: AC-3 2.0
бітрейт: 192 кб/с

Субтитри # 1-2: (Full, SDH)
мова: англійська
тип: програмні (м'які)
формат: *.srt


Info
Код:
General
Unique ID                                : 70890147930164526388953896689571129478 (0x3554F22447703D68CA2AA2FA0A9EE886)
Complete name                            : Yesterday (2019) 1080p H.265 [UKR_ENG] [Hurtom].
Format                                   :
Format version                           : Version 4
File size                                : 8.82 GiB
Duration                                 : 1 h 56 min
Overall bit rate                         : 10.9 Mb/s
Movie name                               : Вчора / Yesterday (2019)
Encoded date                             : UTC 2019-11-16 08:49:37
Writing application                      : v20.0.0 ('I Am The Sun') 64-bit
Writing library                          : libebml v1.3.5 + v1.4.8
Cover                                    : Yes
Attachments                              : Cover.jpg

Video
ID                                       : 1
Format                                   : HEVC
Format/Info                              : High Efficiency Video Coding
Format profile                           : Main [email protected]@High
Codec ID                                 : V_MPEGH/ISO/HEVC
Duration                                 : 1 h 56 min
Bit rate                                 : 8 964 kb/s
Width                                    : 1 920 pixels
Height                                   : 804 pixels
Display aspect ratio                     : 2.40:1
Frame rate mode                          : Constant
Frame rate                               : 23.976 (24000/1001) FPS
Color space                              : YUV
Chroma subsampling                       : 4:2:0
Bit depth                                : 10 bits
Bits/(Pixel*Frame)                       : 0.242
Stream size                              : 7.28 GiB (83%)
Title                                    : Вчора / Yesterday (2019)
Language                                 : English
Default                                  : Yes
Forced                                   : No
Color range                              : Limited

Audio #1
ID                                       : 2
Format                                   : AC-3
Format/Info                              : Audio Coding 3
Commercial name                          : Dolby Digital
Codec ID                                 : A_AC3
Duration                                 : 1 h 56 min
Bit rate mode                            : Constant
Bit rate                                 : 192 kb/s
Channel(s)                               : 2 channels
Channel layout                           : L R
Sampling rate                            : 48.0 kHz
Frame rate                               : 31.250 FPS (1536 SPF)
Bit depth                                : 16 bits
Compression mode                         : Lossy
Stream size                              : 160 MiB (2%)
Title                                    : / 2.0 Ch / 192 kbps / ПД
Language                                 : Ukrainian
Service kind                             : Complete Main
Default                                  : Yes
Forced                                   : Yes

Audio #2
ID                                       : 3
Format                                   :
Format/Info                              : Digital Theater Systems
Codec ID                                 : A_DTS
Duration                                 : 1 h 56 min
Bit rate mode                            : Constant
Bit rate                                 : 1 509 kb/s
Channel(s)                               : 6 channels
Channel layout                           : C L R Ls Rs LFE
Sampling rate                            : 48.0 kHz
Frame rate                               : 93.750 FPS (512 SPF)
Bit depth                                : 16 bits
Compression mode                         : Lossy
Stream size                              : 1.23 GiB (14%)
Title                                    : / 5.1 Ch / 1509 kbps / Original
Language                                 : English
Default                                  : No
Forced                                   : No

Audio #3
ID                                       : 4
Format                                   : AC-3
Format/Info                              : Audio Coding 3
Commercial name                          : Dolby Digital
Codec ID                                 : A_AC3
Duration                                 : 1 h 56 min
Bit rate mode                            : Constant
Bit rate                                 : 192 kb/s
Channel(s)                               : 2 channels
Channel layout                           : L R
Sampling rate                            : 48.0 kHz
Frame rate                               : 31.250 FPS (1536 SPF)
Bit depth                                : 16 bits
Compression mode                         : Lossy
Stream size                              : 160 MiB (2%)
Title                                    : / 2.0 Ch / 192 kbps / Original / Commentary
Language                                 : English
Service kind                             : Complete Main
Default                                  : No
Forced                                   : No

Text #1
ID                                       : 5
Format                                   : UTF-8
Codec ID                                 : S_TEXT/UTF8
Codec ID/Info                            : UTF-8 Plain Text
Duration                                 : 1 h 55 min
Bit rate                                 : 79 b/s
Count of elements                        : 2244
Stream size                              : 67.1 KiB (0%)
Title                                    : Full
Language                                 : English
Default                                  : No
Forced                                   : No

Text #2
ID                                       : 6
Format                                   : UTF-8
Codec ID                                 : S_TEXT/UTF8
Codec ID/Info                            : UTF-8 Plain Text
Duration                                 : 1 h 55 min
Bit rate                                 : 86 b/s
Count of elements                        : 2439
Stream size                              : 73.0 KiB (0%)
Title                                    : SDH
Language                                 : English
Default                                  : No
Forced                                   : No

Menu
00:00:00.000                             : :Chapter 01
00:06:16.667                             : :Chapter 02
00:11:19.679                             : :Chapter 03
00:16:13.097                             : :Chapter 04
00:21:28.287                             : :Chapter 05
00:27:04.539                             : :Chapter 06
00:33:31.884                             : :Chapter 07
00:38:55.082                             : :Chapter 08
00:45:53.250                             : :Chapter 09
00:48:17.060                             : :Chapter 10
00:56:24.339                             : :Chapter 11
01:03:47.490                             : :Chapter 12
01:09:16.485                             : :Chapter 13
01:14:17.077                             : :Chapter 14
01:19:04.614                             : :Chapter 15
01:24:10.587                             : :Chapter 16
01:31:51.923                             : :Chapter 17
01:36:00.588                             : :Chapter 18
01:40:03.247                             : :Chapter 19
01:46:51.947                             : :Chapter 20
Світлини




Джерело: &
Особиста оцінка: 0 - не дивився


 Трекер:    Зареєстрований   

Завантажити / скачати фільм українською



відео для новачків



 Зареєстрований:   2019-11-16 14:20
 Розмір:   8.82 GB 
 Оцінка фільму:   9.8/10 (Голосів: 6)
   
Інші релізи
   Вчора / Yesterday (2019) UHD Remux 4K 2160p HDR H.265 Ukr/Eng | Sub Eng/Fre/Spa antik_2008  2 / 0   52.46 GB   2019-11-16 15:00 
   Вчора / Yesterday (2019) Remux 1080p Ukr/Eng | Sub Eng/Fre/Spa antik_2008  1 / 0   28.44 GB   2019-11-16 14:42 
   Вчора / Yesterday (2019) 1080p Ukr/Eng | Sub Eng/Fre/Spa antik_2008  4 / 0   8.03 GB   2019-11-16 14:12 
   Вчора / Yesterday (2019) antik_2008  23 / 1   1.47 GB   2019-11-16 14:05 
   Вчора / Yesterday (2019) AVC Ukr/Eng | Sub Eng 11FrYkT  9 / 0   1.95 GB   2019-11-15 18:41 
   Вчора / Yesterday (2019) 720p Ukr/Eng | Sub Eng 11FrYkT  2 / 0   7.57 GB   2019-11-15 18:38 
Ваш часовий пояс: GMT + 2 Години

Нова тема   Відповісти