Фанатик / Віруючий / The Believer (2001) AVC Ukr/Eng | Sub Eng

Нові коментарі

Нова тема   Відповісти
Останній раз роздавалося ortt11 (2019-11-21)
Автор Повідомлення
Anonymous 







2019-10-25 23:36  
Фанатик / The Believer (2001) AVC Ukr/Eng | Sub Eng


Фанатик / Віруючий / The Believer (2001) AVC Ukr/Eng | Sub Eng


Жанр: драма
Країна: США



Кінокомпанія: Fuller Films, Seven Arts Pictures
Режисер: Генрі Бін
Актори: Райан Гослінг, Саммер Фенікс, Тереза Расселл, Біллі Зейн, Гаррет Діллахант, Кріс Ейверс, Джоель Марш Гарленд, Роналд Гаттман, Хезер Голденхерш, Пітер Медоуз

Сюжет:
У дитинстві єврейського хлопчика на ім'я Денні Балінт вигнали з релігійної школи за «вільнодумство». У 22 роки Денні голить голову і стає скінхедом. Тепер він - лідер банди неонацистів, що оголосили війну євреям і влаштовують вуличні бійки і погроми. За його наказом скіни готові вбивати.
Однак, незважаючи на те, що авторитет Денні серед «соратників» росте, в душі він залишається рабином, який б'є євреїв удень, а вночі старанно вивчає священні манускрипти на івриті...


Тривалість: 01:38:17
Якість: AVC
Відео:
кодек:
розмір кадру: 1024 х 576
бітрейт: 2575 кбіт/с

Аудіо # 1:
мова: українська
переклад: багатоголосий закадровий |
кодек: 2.0
бітрейт: 192 кб/с

Аудіо # 2:
мова: англійська
переклад: оригінал
кодек: 5.1
бітрейт: 448 кб/с

Субтитри:
мова: англійська
тип: програмні (м'які)
формат: *.srt
Info
Код:
General
Complete name                            : The Believer (2001) BDRip_AVC [UKR.ENG] [Video_Hurtom].
Format                                   :
Format version                           : Version 4
File size                                : 2.22 GiB
Duration                                 : 1 h 38 min
Overall bit rate                         : 3 217 kb/s
Movie name                               : The Believer (2001) BDRip_AVC [UKR.ENG] [Video_Hurtom]
Encoded date                             : UTC 2019-10-25 21:22:01 / UTC 2019-10-25T19:27:58Z
Writing application                      : v30.1.0 ('Forever And More') 64-bit
Writing library                          : libebml v1.3.6 + v1.4.9 / Lavf57.7.2
Cover                                    : Yes
Attachments                              : Cover.jpg

Video
ID                                       : 1
Format                                   : AVC
Format/Info                              : Advanced Video Codec
Format profile                           : [email protected]
Format settings                          : CABAC / 4 Ref Frames
Format settings, CABAC                   : Yes
Format settings, RefFrames               : 4 frames
Codec ID                                 : V_MPEG4/ISO/AVC
Duration                                 : 1 h 38 min
Bit rate                                 : 2 575 kb/s
Width                                    : 1 024 pixels
Height                                   : 576 pixels
Display aspect ratio                     : 5:3
Frame rate mode                          : Constant
Frame rate                               : 24.000 FPS
Color space                              : YUV
Chroma subsampling                       : 4:2:0
Bit depth                                : 8 bits
Scan type                                : Progressive
Bits/(Pixel*Frame)                       : 0.182
Stream size                              : 1.74 GiB (78%)
Writing library                          : core 148 r2708 86b7198
Encoding settings                        : cabac=1 / ref=2 / deblock=1:0:0 / analyse=0x1:0x111 / me=hex / subme=6 / psy=1 / psy_rd=1.00:0.00 / mixed_ref=1 / me_range=16 / chroma_me=1 / trellis=1 / 8x8dct=0 / cqm=0 / deadzone=21,11 / fast_pskip=1 / chroma_qp_offset=-2 / threads=9 / lookahead_threads=1 / sliced_threads=0 / nr=0 / decimate=1 / interlaced=0 / bluray_compat=0 / constrained_intra=0 / bframes=3 / b_pyramid=2 / b_adapt=1 / b_bias=0 / direct=1 / weightb=1 / open_gop=0 / weightp=1 / keyint=240 / keyint_min=24 / scenecut=40 / intra_refresh=0 / rc_lookahead=30 / rc=2pass / mbtree=1 / bitrate=2575 / ratetol=1.0 / qcomp=0.60 / qpmin=0 / qpmax=69 / qpstep=4 / cplxblur=20.0 / qblur=0.5 / vbv_maxrate=20000 / vbv_bufsize=25000 / nal_hrd=none / filler=0 / ip_ratio=1.40 / aq=1:1.00
Default                                  : Yes
Forced                                   : No
Color range                              : Limited
Color primaries                          : BT.709
Transfer characteristics                 : BT.709
Matrix coefficients                      : BT.709
Statistics Tags Issue                    : v30.1.0 ('Forever And More') 64-bit 2019-10-25 21:22:01 / v30.1.0 ('Forever And More') 64-bit 2019-10-25 21:22:01 / UTC 2019-10-25T19:27:58Z
FromStats_BitRate                        : 2574895
FromStats_Duration                       : 01:38:57.584000000
FromStats_FrameCount                     : 142502
FromStats_StreamSize                     : 1911082245

Audio #1
ID                                       : 2
Format                                   : AC-3
Format/Info                              : Audio Coding 3
Commercial name                          : Dolby Digital
Codec ID                                 : A_AC3
Duration                                 : 1 h 38 min
Bit rate mode                            : Constant
Bit rate                                 : 192 kb/s
Channel(s)                               : 2 channels
Channel layout                           : L R
Sampling rate                            : 48.0 kHz
Frame rate                               : 31.250 FPS (1536 SPF)
Bit depth                                : 16 bits
Compression mode                         : Lossy
Delay relative to video                  : -5 ms
Stream size                              : 136 MiB (6%)
Title                                    : Stereo
Language                                 : Ukrainian
Service kind                             : Complete Main
Default                                  : Yes
Forced                                   : No
Statistics Tags Issue                    : v30.1.0 ('Forever And More') 64-bit 2019-10-25 21:22:01 / v30.1.0 ('Forever And More') 64-bit 2019-10-25 21:22:01 / UTC 2019-10-25T19:27:58Z
FromStats_BitRate                        : 192000
FromStats_Duration                       : 01:38:57.600000000
FromStats_FrameCount                     : 185550
FromStats_StreamSize                     : 142502400

Audio #2
ID                                       : 3
Format                                   : AC-3
Format/Info                              : Audio Coding 3
Commercial name                          : Dolby Digital
Codec ID                                 : A_AC3
Duration                                 : 1 h 38 min
Bit rate mode                            : Constant
Bit rate                                 : 448 kb/s
Channel(s)                               : 6 channels
Channel layout                           : L R C LFE Ls Rs
Sampling rate                            : 48.0 kHz
Frame rate                               : 31.250 FPS (1536 SPF)
Bit depth                                : 16 bits
Compression mode                         : Lossy
Delay relative to video                  : -5 ms
Stream size                              : 317 MiB (14%)
Title                                    : Surround
Language                                 : English
Service kind                             : Complete Main
Default                                  : No
Forced                                   : No
Statistics Tags Issue                    : v30.1.0 ('Forever And More') 64-bit 2019-10-25 21:22:01 / v30.1.0 ('Forever And More') 64-bit 2019-10-25 21:22:01 / UTC 2019-10-25T19:27:58Z
FromStats_BitRate                        : 448000
FromStats_Duration                       : 01:38:57.600000000
FromStats_FrameCount                     : 185550
FromStats_StreamSize                     : 332505600

Text
ID                                       : 4
Format                                   : UTF-8
Codec ID                                 : S_TEXT/UTF8
Codec ID/Info                            : UTF-8 Plain Text
Language                                 : English
Default                                  : Yes
Forced                                   : No
Statistics Tags Issue                    : v30.1.0 ('Forever And More') 64-bit 2019-10-25 21:22:01 / v30.1.0 ('Forever And More') 64-bit 2019-10-25 21:22:01 / UTC 2019-10-25T19:27:58Z
FromStats_BitRate                        : 66
FromStats_Duration                       : 01:37:06.352000000
FromStats_FrameCount                     : 1374
FromStats_StreamSize                     : 48193

Menu
00:00:00.000                             : :Chapter 1
00:06:25.542                             : :Chapter 2
00:13:05.250                             : :Chapter 3
00:16:54.750                             : :Chapter 4
00:22:34.292                             : :Chapter 5
00:29:29.042                             : :Chapter 6
00:37:02.917                             : :Chapter 7
00:44:05.125                             : :Chapter 8
00:50:22.250                             : :Chapter 9
00:56:35.250                             : :Chapter 10
01:03:18.458                             : :Chapter 11
01:07:49.042                             : :Chapter 12
01:16:41.167                             : :Chapter 13
01:21:58.250                             : :Chapter 14
01:27:59.542                             : :Chapter 15
01:35:02.083                             : :Chapter 16
Скріншоти




Дякую за аудіо : kryk-v.ya
Джерело:
Особиста оцінка: 9 - давно не бачив настільки якісне кіно


Срібний реліз (на рейтинг впливає 50% завантаженого)
 Трекер:    Зареєстрований   

Завантажити / скачати фільм українською



відео для новачків



 Зареєстрований:   2019-10-25 23:45
 Розмір:   2.22 GB 
 Оцінка фільму:   6.8/10 (Голосів: 12)
   
Інші релізи
bot 
робот


З нами з: 30.09.07
Востаннє: 26.05.05
Повідомлень: 22493

2019-10-25 23:45  
Тему перенесено з Анонси релізів до форуму Фільми


antik_2008

Ваш часовий пояс: GMT + 2 Години

Нова тема   Відповісти