Ліга Європи 2019-2020 / Група B / 3 - тур / Динамо Київ - Копенгаген / Футбол 1 HD (24.10.2019)

Нові коментарі

Нова тема   Відповісти
Останній раз роздавалося kostikcomua (2020-01-11)
Автор Повідомлення
Anonymous 







2019-10-25 19:58  
Ліга Європи 2019-2020 / Група B / 3- тур / Динамо Київ - Копенгаген / Футбол 1 HD (24.10.2019)

Ліга Європи 2019-2020 / Група B / 3 - тур / Динамо Київ - Копенгаген / Футбол 1 HD (24.10.2019)


Телеканал: Футбол 1 HD
Опис:
Ліга Європи 2019-2020 / Група B / 1- тур / Динамо Київ - Копенгаген
Тривалість:
01:44:59
Якість:
Відео:
кодек:
розмір кадру: 1280x720
бітрейт: ~2600 кб/с

Аудіо:
мова: українська
переклад: одноголосий закадровий | Олександр Михайлюк |
кодек: 2.0
бітрейт: 128 кб/с
Склади:
Скріншоти




Info
Код:
General
Complete name                            : Dynamo_Kyiv_vs_FC_Copenhagen (24.10.2019) .
Format                                   :
Format version                           : Version 4
File size                                : 2.01 GiB
Duration                                 : 1 h 44 min
Overall bit rate                         : 2 740 kb/s
Movie name                               : All Sport on RGFOOTBALL.NET
Writing application                      : Lavf57.62.100
Writing library                          : Lavf57.62.100
ErrorDetectionType                       : Per level 1

Video
ID                                       : 1
Format                                   : AVC
Format/Info                              : Advanced Video Codec
Format profile                           : [email protected]
Format settings                          : CABAC / 4 Ref Frames
Format settings, CABAC                   : Yes
Format settings, RefFrames               : 4 frames
Codec ID                                 : V_MPEG4/ISO/AVC
Duration                                 : 1 h 44 min
Bit rate                                 : 2 558 kb/s
Width                                    : 1 280 pixels
Height                                   : 720 pixels
Display aspect ratio                     : 16:9
Frame rate mode                          : Variable
Color space                              : YUV
Chroma subsampling                       : 4:2:0
Bit depth                                : 8 bits
Scan type                                : Progressive
Stream size                              : 1.88 GiB (93%)
Writing library                          : core 148 r2744 b97ae06
Encoding settings                        : cabac=1 / ref=3 / deblock=1:-1:-1 / analyse=0x3:0x113 / me=hex / subme=7 / psy=1 / psy_rd=1.00:0.15 / mixed_ref=1 / me_range=16 / chroma_me=1 / trellis=1 / 8x8dct=1 / cqm=0 / deadzone=21,11 / fast_pskip=1 / chroma_qp_offset=-3 / threads=64 / lookahead_threads=5 / sliced_threads=0 / nr=0 / decimate=1 / interlaced=0 / bluray_compat=0 / constrained_intra=0 / bframes=3 / b_pyramid=2 / b_adapt=1 / b_bias=0 / direct=1 / weightb=1 / open_gop=0 / weightp=2 / keyint=250 / keyint_min=25 / scenecut=40 / intra_refresh=0 / rc_lookahead=40 / rc=crf / mbtree=1 / crf=21.5 / qcomp=0.60 / qpmin=0 / qpmax=69 / qpstep=4 / vbv_maxrate=5500 / vbv_bufsize=2000 / crf_max=23.0 / nal_hrd=none / filler=0 / ip_ratio=1.40 / aq=1:1.00
Default                                  : Yes
Forced                                   : No

Audio
ID                                       : 2
Format                                   : AC-3
Format/Info                              : Audio Coding 3
Commercial name                          : Dolby Digital
Codec ID                                 : A_AC3
Duration                                 : 1 h 44 min
Bit rate mode                            : Constant
Bit rate                                 : 128 kb/s
Channel(s)                               : 2 channels
Channel layout                           : L R
Sampling rate                            : 48.0 kHz
Frame rate                               : 31.250 FPS (1536 SPF)
Bit depth                                : 16 bits
Compression mode                         : Lossy
Stream size                              : 96.1 MiB (5%)
Writing library                          : Lavc57.72.100
Language                                 : Ukrainian
Service kind                             : Complete Main
Default                                  : No
Forced                                   : No

Джерело:
Особиста оцінка: 7 - моїй подрузі не сподобалося


Золотий реліз (завантажене не впливає на рейтинг)
 Трекер:    Зареєстрований   

Завантажити / скачати торрент



відео для новачків



 Зареєстрований:   2019-10-25 19:58
 Розмір:   2.01 GB 
 Оцінка:   9/10 (Голосів: 1)
   
Ваш часовий пояс: GMT + 2 Години

Нова тема   Відповісти