Ліга Європи 2019-2020 / Група I / 3- тур / Сент-Етьєн - ФК Олександрія / Футбол 2 HD (23.10.2019)

Нові коментарі

Нова тема   Відповісти
Останній раз роздавалося tanatosstas81 (2019-11-11)
Автор Повідомлення
Anonymous 







2019-10-25 19:04  
Ліга Європи 2019-2020 / Група I / 3- тур / Сент-Етьєн - ФК Олександрія / Футбол 2 HD (23.10.2019)

Ліга Європи 2019-2020 / Група I / 3- тур / Сент-Етьєн - ФК Олександрія / Футбол 2 HD (23.10.2019)


Телеканал: Футбол 2 HD
Опис:
Ліга Європи 2019-2020 / Група I / 3- тур / Сент-Етьєн проти ФК Олександрія
Тривалість:
01:46:08
Якість:
Відео:
кодек:
розмір кадру: 1280x720
бітрейт: ~3400 кб/с

Аудіо:
мова: українська
переклад: одноголосий закадровий | Роман Тимощук |
кодек: 2.0
бітрейт: 128 кб/с
Склади:
Скріншоти




Info
Код:
General
Complete name                            : Saint-Etienne_vs_FC_Olexandriya (24.10.2019) .
Format                                   :
Format version                           : Version 4
File size                                : 2.63 GiB
Duration                                 : 1 h 46 min
Overall bit rate                         : 3 551 kb/s
Writing application                      : VideoReDo (Lavf56.25.101)
Writing library                          : VideoReDo (Lavf56.25.101)

Video
ID                                       : 1
Format                                   : AVC
Format/Info                              : Advanced Video Codec
Format profile                           : [email protected]
Format settings                          : CABAC / 4 Ref Frames
Format settings, CABAC                   : Yes
Format settings, RefFrames               : 4 frames
Codec ID                                 : V_MPEG4/ISO/AVC
Duration                                 : 1 h 46 min
Bit rate                                 : 3 352 kb/s
Width                                    : 1 280 pixels
Height                                   : 720 pixels
Display aspect ratio                     : 16:9
Frame rate mode                          : Constant
Frame rate                               : 50.000 FPS
Color space                              : YUV
Chroma subsampling                       : 4:2:0
Bit depth                                : 8 bits
Scan type                                : Progressive
Bits/(Pixel*Frame)                       : 0.073
Stream size                              : 2.49 GiB (94%)
Default                                  : No
Forced                                   : No

Audio
ID                                       : 2
Format                                   : AC-3
Format/Info                              : Audio Coding 3
Commercial name                          : Dolby Digital
Codec ID                                 : A_AC3
Duration                                 : 1 h 46 min
Bit rate mode                            : Constant
Bit rate                                 : 128 kb/s
Channel(s)                               : 2 channels
Channel layout                           : L R
Sampling rate                            : 48.0 kHz
Frame rate                               : 31.250 FPS (1536 SPF)
Bit depth                                : 16 bits
Compression mode                         : Lossy
Stream size                              : 97.2 MiB (4%)
Language                                 : Ukrainian
Service kind                             : Complete Main
Default                                  : Yes
Forced                                   : No

Джерело:
Особиста оцінка: 8 - мені сподобалося


Бронзовий реліз (на рейтинг впливає 75% завантаженого)
 Трекер:    Зареєстрований   

Завантажити / скачати торрент



відео для новачків



 Зареєстрований:   2019-10-25 19:04
 Розмір:   2.63 GB 
 Оцінка:   10/10 (Голосів: 2)
   
Ваш часовий пояс: GMT + 2 Години

Нова тема   Відповісти