Ліга Чемпіонів 2019-2020 / Група С / 3 тур / Шахтар Донецьк (Україна) - Динамо Загреб (Хорватія) / Футбол 1 HD (22.10.2019) 720р

Нові коментарі

Нова тема   Відповісти
Останній раз роздавалося antik_2008 (2019-11-11)
Автор Повідомлення
Anonymous 







2019-10-25 17:37  
Ліга Чемпіонів 2019-2020 / Група С / 3 тур / Шахтар Донецьк (Україна) - Динамо Загреб (Хорватія) / Футбол 1 HD (22.10.2019) 720р

Ліга Чемпіонів 2019-2020 / Група С / 3 тур / Шахтар Донецьк (Україна) - Динамо Загреб (Хорватія) / Футбол 1 HD (22.10.2019) 720р


Телеканал: Футбол 1 HD

Опис:
Ліга Чемпіонів 2019-2020 / Група С / 3 тур / Шахтар Донецьк (Україна) - Динамо Загреб (Хорватія)
Тривалість:
01:50:05
Якість:
Відео:
кодек:
розмір кадру: 1280x720
бітрейт: ~3000 кб/с

Аудіо:
мова: українська
переклад: одноголосий закадровий | Круторогов Кирило Ігорович |
кодек: 2.0
бітрейт: 128 кб/с
Склади:
Скріншоти:




Info
Код:
General
Complete name                            : UEFA Champions League 2019-2020 » Group C » Matchday 3 » Shakhtar Donetsk - Dinamo Zagreb 720p\Shakhtar Donetsk - Dinamo Zagreb.
Format                                   :
Format version                           : Version 4
File size                                : 2.53 GiB
Duration                                 : 1 h 50 min
Overall bit rate                         : 3 295 kb/s
Writing application                      : VideoReDo (Lavf56.25.101)
Writing library                          : VideoReDo (Lavf56.25.101)

Video
ID                                       : 1
Format                                   : AVC
Format/Info                              : Advanced Video Codec
Format profile                           : [email protected]
Format settings                          : CABAC / 4 Ref Frames
Format settings, CABAC                   : Yes
Format settings, RefFrames               : 4 frames
Format settings, GOP                     : M=2, N=15
Codec ID                                 : V_MPEG4/ISO/AVC
Duration                                 : 1 h 50 min
Bit rate                                 : 3 101 kb/s
Width                                    : 1 280 pixels
Height                                   : 720 pixels
Display aspect ratio                     : 16:9
Frame rate mode                          : Constant
Frame rate                               : 50.000 FPS
Color space                              : YUV
Chroma subsampling                       : 4:2:0
Bit depth                                : 8 bits
Scan type                                : Progressive
Bits/(Pixel*Frame)                       : 0.067
Stream size                              : 2.38 GiB (94%)
Default                                  : No
Forced                                   : No

Audio
ID                                       : 2
Format                                   : AC-3
Format/Info                              : Audio Coding 3
Commercial name                          : Dolby Digital
Codec ID                                 : A_AC3
Duration                                 : 1 h 50 min
Bit rate mode                            : Constant
Bit rate                                 : 128 kb/s
Channel(s)                               : 2 channels
Channel layout                           : L R
Sampling rate                            : 48.0 kHz
Frame rate                               : 31.250 FPS (1536 SPF)
Bit depth                                : 16 bits
Compression mode                         : Lossy
Stream size                              : 101 MiB (4%)
Language                                 : Ukrainian
Service kind                             : Complete Main
Default                                  : Yes
Forced                                   : No
Джерело:
Особиста оцінка: 8 - мені сподобалося


Золотий реліз (завантажене не впливає на рейтинг)
 Трекер:    Зареєстрований   

Завантажити / скачати торрент



відео для новачків



 Зареєстрований:   2019-10-25 17:37
 Розмір:   2.53 GB 
 Оцінка:   10/10 (Голосів: 2)
   
Ваш часовий пояс: GMT + 2 Години

Нова тема   Відповісти