Зоряні війни. Рух опору / Star Wars Resistance (Сезон 1) (2018) AVC

Нові коментарі

Нова тема   Відповісти
Автор Повідомлення
sergiyko.5 
VIP


З нами з: 25.02.16
Востаннє: 17.02.20
Повідомлень: 2937

2019-10-25 17:27  
Всі одноіменні релізи на трекері

Зоряні війни. Рух опору / Star Wars Resistance (Сезон 1) (2018) AVC


Зоряні війни. Рух опору / Star Wars Resistance (Сезон 1) (2018) AVC

Жанр: фантастика, екшн
Країна: США
Кінокомпанія: Lucasfilm Ltd, DisneyXD
Режисер: Емі Бет Хрістенсон
Актори: Крістофер Шон, Боббі Мойніхен, Сьюзі МакГрат, Скотт Лоуренс, Мірна Веласко, Джош Бренер, Дональд Фейсон, Джим Раш

Сюжет:
Події серіалу матимуть місце за кілька років до подій фільму Зоряні війни: Пробудження Сили. Серіал розповість про пілота Казуда Ксіоно, якого найняв Опір, щоб шпигувати за зростаючою загрозою Верховного Порядку.




Дата світової прем'єри: 07 жовтня 2018 року
Дата української прем'єри: 08 жовтня 2019 року


Тривалість: 1 серія: 22:30 (цілком серій: 20 з 20)
Якість:

Відео: кодек: розмір кадру: 1024 х 576 бітрейт: 1100 кб/с
Аудіо: мова: українська переклад: професійний дубльований кодек: 2.0 бітрейт: 256 кб/с
Озвучення: НЛО-ТБ
Перелік серій
01. The Recruit
02. The Triple Dark
03. Fuel for the Fire
04. The High Tower
05. The Children from Tehar
06. Signal from Sector Six
07. Synara's Score
08. The Platform Classic
09. Secrets and Holograms
10. Station Theta Black
11. Bibo
12. Dangerous Business
13. The Doza Dilemma
14. The First Order Occupation
15. The New Trooper
16. The Core Problem
17. The Disappeared
18. Descent
19. No Escape: Part 1
20. No Escape: Part 2
Про файл:
General
Unique ID : 37119964484181575412868933202125098210 (0x1BED0B8C8E63F2909D3AF6EDA1858CE2)
Complete name : D:\Documents\Torrents\MULTSER\Star Wars Resistance S01 \S01E02.The.Triple.Dark.1080p..
Format :
Format version : Version 2
File size : 218 MiB
Duration : 22 min 6 s
Overall bit rate : 1 377 kb/s
Encoded date : UTC 2019-10-25 10:53:14
Writing application : v36.0.0 ('Is That Jazz?') 64-bit
Writing library : libebml v1.3.9 + v1.5.2

Video
ID : 1
Format : AVC
Format/Info : Advanced Video Codec
Format profile : [email protected]
Format settings : CABAC / 14 Ref Frames
Format settings, CABAC : Yes
Format settings, Reference : 14 frames
Codec ID : V_MPEG4/ISO/AVC
Duration : 22 min 6 s
Bit rate : 1 093 kb/s
Width : 1 024 pixels
Height : 576 pixels
Display aspect ratio : 16:9
Frame rate mode : Constant
Frame rate : 23.976 (24000/1001) FPS
Color space : YUV
Chroma subsampling : 4:2:0
Bit depth : 8 bits
Scan type : Progressive
Bits/(Pixel*Frame) : 0.077
Stream size : 173 MiB (79%)
Writing library : core 157 r2969 d4099dd
Encoding settings : cabac=1 / ref=14 / deblock=1:-1:-1 / analyse=0x3:0x133 / me=umh / subme=10 / psy=1 / psy_rd=0.40:0.00 / mixed_ref=1 / me_range=32 / chroma_me=1 / trellis=2 / 8x8dct=1 / cqm=0 / deadzone=21,11 / fast_pskip=1 / chroma_qp_offset=-2 / threads=18 / lookahead_threads=3 / sliced_threads=0 / nr=0 / decimate=1 / interlaced=0 / bluray_compat=0 / constrained_intra=0 / bframes=8 / b_pyramid=2 / b_adapt=2 / b_bias=0 / direct=3 / weightb=1 / open_gop=0 / weightp=2 / keyint=250 / keyint_min=23 / scenecut=40 / intra_refresh=0 / rc_lookahead=60 / rc=crf / mbtree=1 / crf=18.0 / qcomp=0.70 / qpmin=0 / qpmax=69 / qpstep=4 / ip_ratio=1.40 / aq=1:0.60
Default : Yes
Forced : No

Audio
ID : 2
Format : AC-3
Format/Info : Audio Coding 3
Commercial name : Dolby Digital
Codec ID : A_AC3
Duration : 22 min 6 s
Bit rate mode : Constant
Bit rate : 256 kb/s
Channel(s) : 2 channels
Channel layout : L R
Sampling rate : 48.0 kHz
Frame rate : 31.250 FPS (1536 SPF)
Bit depth : 16 bits
Compression mode : Lossy
Stream size : 40.5 MiB (19%)
Service kind : Complete Main
Default : Yes
Forced : No
Скріншоти:


Запис/зведення: sergiyko


Бронзовий реліз (на рейтинг впливає 75% завантаженого)
 Трекер:    Зареєстрований   

Завантажити / скачати мультфільм українською



відео для новачків



 Зареєстрований:   2019-10-25 17:27
 Розмір:   4.4 GB 
 Оцінка мультсеріалу:   9.8/10 (Голосів: 11)
   
tpolit 
VIP


З нами з: 10.01.15
Востаннє: 17.02.20
Повідомлень: 543

2019-10-25 17:45  
Щось рейтинг не дуже.
Подивився і стало зрозуміло, чому такий рейтинг. Взагалі не цікаво, звичайна спекуляція на темі про "Зоряні війни".

vovkulaka1 
Новенький


З нами з: 21.09.16
Востаннє: 17.02.20
Повідомлень: 2

2020-01-15 20:51  
Нормальний мульт. Передісторія до VII епізоду Саги.
Ваш часовий пояс: GMT + 2 Години

Нова тема   Відповісти