Свинка Пеппа / Peppa Pig (Сезон 6) (2019) 1080p

Нові коментарі

Нова тема   Відповісти
Автор Повідомлення
sergiyko.5 
Забанено
Забанено


З нами з: 25.02.16
Востаннє: 29.10.20
Повідомлень: 3648

2019-10-25 13:44  
Всі одноіменні релізи на трекері записані sergiyko`m

Свинка Пеппа / Peppa Pig (Сезон 6) (2019) 1080p


Свинка Пеппа / Peppa Pig (Сезон 6) (2019) 1080p

Жанр: пригоди, комедія
Країна: Велика Британія
Кінокомпанія: Astley Baker Davies Ltd., Contender Group, Entertainment
Режисер: Естлі Бейкер Девіс
Актори: Джон Спаркс, Гарлі Берд, Олівер Мей, Девід Рінтул, Сара Енн Кеннеді, Морвенна Бенкс, Річард Райдінгс

Сюжет:
Персонажі мультфільму наділені якостями як звичайних людей, так і тварин. Вони носять одяг, живуть у будинках, ходять на роботу, у театр, їздять на автомобілі, тощо. Діти відзначають дні народження, катаються на ковзанах, граються у парку — одним словом, займаються тим, чим звичайні діти. З іншого боку, персонажам притаманні вчинки тварин — свинки хрюкають та полюбляють поніжитись у болоті, овечки бекають а кішки нявкають...




Тривалість: 1 серія: 05:00 (цілком серій: 52 з 52)
Якість:

Відео: кодек: розмір кадру: 1920 х 1080 бітрейт: 2600 кб/с
Аудіо: мова: українська озвучення: професійне дубльоване кодек: 2.0 бітрейт: 256 кб/с
Озвучення:
Перелік серій
01 Панди-близнючки
02 Китайський Новий Рік
03 Мишка Менді
04 Гра на флейті
05 Урок відпочинку від пані Кролиці
06 Штраф за паркування
07 Брудні калюжі
08 День Батька
09 Смішна музика
10 Жовтець, стокротки та кульбаби
11 Кулько-трек
12 Металошукач дідуся Свина
13 Всесвітній день книги
14 Дитячий фестиваль
15 Фестиваль болота
16 Полуниця
17 День народження дідуся
18 Дитяча ферма
19 Піца! Піца!
20 Телесвіт
21 День римлян
22 Спостереження за птахами
23 Фільм про суперкартопляника
24 Битка і м'яч
25 Піратський скарб
26 Різдво у лікарні
27 Валентинів день
28 Ідеальний день
29 Клуб сніданок
30 Ботанічні сади
31 Фруктово-овочева вікторина пана Бульби
32 День вікінга
33 Саморобні музичні інструменти
34 Майбутнє
35 Великий подарунок для лікарки пані Хом'як
36 Метелики
37 Реактивний ранець діда Кроля
38 Детектив Бульба
39 Електромобіль
40

51
52
Про файл:
General
Unique ID : 99327194580879555466159094651832102365 (0x4AB9B8CA1509B8BEAAC7CD227805EDDD)
Complete name : C:\Users\Sergij\Documents\mux peppa\mux_out\Peppa Pig S06 1080p \S06E12.Grandpa Pig's Metal Detector.1080p..
Format :
Format version : Version 4
File size : 102 MiB
Duration : 5 min 2 s
Overall bit rate : 2 841 kb/s
Movie name : Peppa Pig S06 rip by sergiyko
Encoded date : UTC 2020-07-27 09:59:47
Writing application : v47.0.0 ('Black Flag') 64-bit
Writing library : libebml v1.3.10 + v1.5.2 / Lavf58.42.101

Video
ID : 1
Format : AVC
Format/Info : Advanced Video Codec
Format profile : [email protected]
Format settings : CABAC / 4 Ref Frames
Format settings, CABAC : Yes
Format settings, Reference : 4 frames
Codec ID : V_MPEG4/ISO/AVC
Duration : 5 min 2 s
Bit rate : 2 583 kb/s
Width : 1 920 pixels
Height : 1 080 pixels
Display aspect ratio : 16:9
Frame rate mode : Constant
Frame rate : 25.000 FPS
Color space : YUV
Chroma subsampling : 4:2:0
Bit depth : 8 bits
Scan type : Progressive
Bits/(Pixel*Frame) : 0.050
Stream size : 93.1 MiB (91%)
Writing library : core 159
Encoding settings : cabac=1 / ref=4 / deblock=1:0:0 / analyse=0x3:0x133 / me=tesa / subme=11 / psy=1 / psy_rd=1.00:0.00 / mixed_ref=1 / me_range=24 / chroma_me=1 / trellis=2 / 8x8dct=1 / cqm=0 / deadzone=21,11 / fast_pskip=0 / chroma_qp_offset=-2 / threads=24 / lookahead_threads=6 / sliced_threads=0 / nr=0 / decimate=1 / interlaced=0 / bluray_compat=0 / constrained_intra=0 / bframes=16 / b_pyramid=2 / b_adapt=2 / b_bias=0 / direct=3 / weightb=1 / open_gop=0 / weightp=2 / keyint=250 / keyint_min=25 / scenecut=40 / intra_refresh=0 / rc_lookahead=60 / rc=crf / mbtree=1 / crf=14.0 / qcomp=0.60 / qpmin=0 / qpmax=69 / qpstep=4 / ip_ratio=1.40 / aq=1:1.00
Language : English
Default : Yes
Forced : No

Audio
ID : 2
Format : LC
Format/Info : Advanced Audio Codec Low Complexity
Codec ID : A_AAC-2
Duration : 5 min 2 s
Bit rate : 256 kb/s
Channel(s) : 2 channels
Channel layout : L R
Sampling rate : 44.1 kHz
Frame rate : 43.066 FPS (1024 SPF)
Compression mode : Lossy
Stream size : 9.22 MiB (9%)
Title : UKR DUB
Language : Ukrainian
Default : Yes
Forced : No
Скріншоти:


Автор релізу: sergiyko


Бронзовий реліз (на рейтинг впливає 75% завантаженого)
 Трекер:    Зареєстрований   

Завантажити / скачати мультфільм українською



відео для новачків



 Зареєстрований:   2020-09-25 16:52
 Розмір:   5.84 GB 
 Оцінка мультсеріалу:   10/10 (Голосів: 22)
   
witekzeleni 
Новенький


З нами з: 23.01.13
Востаннє: 23.04.21
Повідомлень: 3

2019-11-14 22:33  
Доброго! Прошу звернути Вашу увагу, що мультики цього сезону записані з використанням іншого кодеку чи формату! Якщо невірно щось вказав, то не сваріть. Телевізор через флешку не відтворює!!! Всі інші сезони для доні закачував на цьому сайті і проблем не було!!! З повагою!
Світодар 
Новенький


З нами з: 08.01.11
Востаннє: 22.04.21
Повідомлень: 7

2020-03-05 19:56  
У мене, також, цей реліз невідтворюється на телевізорі Philips. Може варто перекодувати?
dora2006 
Новенький


З нами з: 26.12.15
Востаннє: 28.03.21
Повідомлень: 3

2020-04-19 15:47  
Телевізор через флешку не відтворює!!!
на жаль ...

sergiyko.5 
Забанено
Забанено


З нами з: 25.02.16
Востаннє: 29.10.20
Повідомлень: 3648

2020-04-30 13:48  
Телевізор Philips 42PFL7605 модель 2010 року нормально програє файли.

Додано через 1 хвилину 3 секунди:

Як буде змога, запишу та перекодую файли наново провсяк випадок.

sergiyko.5 
Забанено
Забанено


З нами з: 25.02.16
Востаннє: 29.10.20
Повідомлень: 3648

2020-07-27 15:13  
Торент оновлено. Старі серії перекодовані для сумісності. Додав 26-39 серії.
sergiyko.5 
Забанено
Забанено


З нами з: 25.02.16
Востаннє: 29.10.20
Повідомлень: 3648

2020-09-25 16:53  
Сезон повний. Приємного перегляду!
Fritz_inferno 
Новенький


З нами з: 15.04.14
Востаннє: 20.04.21
Повідомлень: 18

2020-12-06 12:42  
А хто знає, коли чекати 7 і 8 сезон? Бо малий питає , а кацапською не дивимося принципово
Ваш часовий пояс: GMT + 2 Години

Нова тема   Відповісти