Шпигун (Сезон 1) / The Spy (Season 1) (2019) 1080р Ukr/Eng | Sub Ukr/Eng

Нові коментарі

Нова тема   Відповісти
Автор Повідомлення
AdrianZP 
VIP


З нами з: 28.08.14
Востаннє: 03.12.20
Повідомлень: 399

2019-10-25 12:35  
Шпигун (Сезон 1) / The Spy (Season 1) (2019) 1080р Ukr/Eng | Sub Ukr/Eng



Проєкт підготовлено за підтримки fishMD


Жанр: Драма
Країна: Франція, Марокко



Кінокомпанія: Netflix
Режисер: Ґідеон Рафф
Актори: Саша Барон Коен, Хадар Ратсон Ротем, Яель Ейтан, Ноа Еммеріх та інші

Сюжет:
Міні-серіал заснований на реальних подіях. Це історія життя ізраїльського шпигуна Елі Коена. У 1959 році він отримує завдання відправитися під прикриттям до Сирії і в кінцевому підсумку змінює хід історії Ізраїлю.


Тривалість: 1 серія: ~60 хв. (цілком серій: 6)
Перелік серій
1. Іммігрант
2. Що нового у Буенос?
3. Наодинці у Дамаску
4. Непарні пари
5. Риба має плавати
6. Дім
Якість: 1080p
Відео:
кодек:
розмір кадру: 1920 х 920
бітрейт: ~ 5500 кб/с

Аудіо # 1:
мова: українська
переклад: багатоголосий закадровий | Озвучка AdrianZP
кодек: 5.1
бітрейт: 448 кб/с

Аудіо # 2:
мова: англійська
переклад: оригінал
кодек: 5.1
бітрейт: 448 кб/с

Субтитри:
мова: українська | Озвучка AdrianZP
тип: програмні (м'які)
формат: *.srt

Субтитри:
мова: англійська
тип: програмні (м'які)
формат: *.srt
Info
Format :
Format version : Version 4 / Version 2
File size : 2.14 GiB
Duration : 47 min 48 s
Overall bit rate : 6 403 kb/s
Movie name : 1. Іммігрант
Encoded date : UTC 2019-10-25 09:53:57
Writing application : v9.4.0 ('Knurl') 64bit
Writing library : libebml v1.3.4 + v1.4.5
Cover : Yes
Attachments : Cover Ukr-min.jpg

Video
ID : 1
Format : AVC
Format/Info : Advanced Video Codec
Format profile : [email protected]
Format settings, CABAC : Yes
Format settings, ReFrames : 4 frames
Codec ID : V_MPEG4/ISO/AVC
Duration : 47 min 48 s
Bit rate : 5 500 kb/s
Width : 1 920 pixels
Height : 920 pixels
Display aspect ratio : 2.087
Frame rate mode : Constant
Frame rate : 25.000 FPS
Color space : YUV
Chroma subsampling : 4:2:0
Bit depth : 8 bits
Scan type : Progressive
Bits/(Pixel*Frame) : 0.125
Stream size : 1.84 GiB (86%)
Writing library : core 157 r2935 545de2f
Encoding settings : cabac=1 / ref=4 / deblock=1:0:0 / analyse=0x3:0x133 / me=umh / subme=9 / psy=1 / psy_rd=1.00:0.00 / mixed_ref=1 / me_range=16 / chroma_me=1 / trellis=2 / 8x8dct=1 / cqm=0 / deadzone=21,11 / fast_pskip=1 / chroma_qp_offset=-2 / threads=18 / lookahead_threads=1 / sliced_threads=0 / nr=0 / decimate=1 / interlaced=0 / bluray_compat=0 / constrained_intra=0 / bframes=3 / b_pyramid=2 / b_adapt=2 / b_bias=0 / direct=3 / weightb=1 / open_gop=0 / weightp=2 / keyint=250 / keyint_min=25 / scenecut=40 / intra_refresh=0 / rc_lookahead=60 / rc=2pass / mbtree=1 / bitrate=5500 / ratetol=1.0 / qcomp=0.60 / qpmin=0 / qpmax=69 / qpstep=4 / cplxblur=20.0 / qblur=0.5 / vbv_maxrate=25000 / vbv_bufsize=31250 / nal_hrd=none / filler=0 / ip_ratio=1.40 / aq=1:1.00
Language : English
Default : Yes
Forced : No
Color range : Limited
Color primaries : BT.709
Transfer characteristics : BT.709
Matrix coefficients : BT.709

Audio #1
ID : 2
Format : AC-3
Format/Info : Audio Coding 3
Mode extension : CM (complete main)
Format settings, Endianness : Big
Codec ID : A_AC3
Duration : 47 min 48 s
Bit rate mode : Constant
Bit rate : 448 kb/s
Channel(s) : 6 channels
Channel positions : Front: L C R, Side: L R, LFE
Sampling rate : 48.0 kHz
Frame rate : 31.250 FPS (1536 spf)
Compression mode : Lossy
Stream size : 153 MiB (7%)
Title : Озвучка AdrianZP
Language : Ukrainian
Default : Yes
Forced : No

Audio #2
ID : 3
Format : AC-3
Format/Info : Audio Coding 3
Mode extension : CM (complete main)
Format settings, Endianness : Big
Codec ID : A_AC3
Duration : 47 min 48 s
Bit rate mode : Constant
Bit rate : 448 kb/s
Channel(s) : 6 channels
Channel positions : Front: L C R, Side: L R, LFE
Sampling rate : 48.0 kHz
Frame rate : 31.250 FPS (1536 spf)
Compression mode : Lossy
Stream size : 153 MiB (7%)
Language : English
Default : No
Forced : No

Text #1
ID : 4
Format : UTF-8
Codec ID : S_TEXT/UTF8
Codec ID/Info : UTF-8 Plain Text
Duration : 45 min 25 s
Bit rate : 75 b/s
Count of elements : 562
Stream size : 25.1 KiB (0%)
Title : Переклад "Озвучка AdrianZP"
Language : Ukrainian
Default : No
Forced : No

Text #2
ID : 5
Format : UTF-8
Codec ID : S_TEXT/UTF8
Codec ID/Info : UTF-8 Plain Text
Duration : 44 min 1 s
Bit rate : 48 b/s
Count of elements : 544
Stream size : 15.7 KiB (0%)
Language : English
Default : No
Forced : No
Скріншоти





Озвучення виконано:
Переклад: Dakshina_Kali
Редагування субтитрів: AdrianZP
Ролі озвучили: Ptaxa, В одне рило, AdrianZP, Snovyda, Anna_Smile та Trina_D
Робота зі звуком: AdrianZP
Постер: AdrianZP

Особиста оцінка: 10 - Серіал вартий перегляду! Саша Барон Коен у цій ролі просто виніс мозок.


Авторський реліз (завантажувати можна без реєстрації)
 Трекер:    Зареєстрований   

Завантажити / скачати серіал українською



відео для новачків



 Зареєстрований:   2019-10-25 12:35
 Розмір:   14.45 GB 
 Оцінка серіалу:   9.6/10 (Голосів: 42)
   
AdrianZP 
VIP


З нами з: 28.08.14
Востаннє: 03.12.20
Повідомлень: 399

2019-10-25 12:38  
Озвучено міні-серіал!


Не забувайте, що найкраща подяка — лишатися на роздачі. Дякуємо!


Якщо хтось створюватиме додаткові релізи з іншою якістю, просимо вказувати всю інформацію про команду озвучення.

PadON 
Новенький


З нами з: 03.12.12
Востаннє: 01.12.20
Повідомлень: 14

2019-10-25 12:53  
Саша Барон Коен і не кривляється?
Стоп.. Це історія його однофамільця чи реального його родича?

AdrianZP 
VIP


З нами з: 28.08.14
Востаннє: 03.12.20
Повідомлень: 399

2019-10-25 13:21  
PadON
Так, він тут класно вжився в роль, що я не одразу допер, що це він)
Цитата:
Це історія його однофамільця чи реального його родича?

На жаль, але не знаю... може хтось інший тут може відповісти на це питання.

ika1963 
Відео Гуртом - дизайнер
Відео Гуртом - дизайнер


З нами з: 13.05.10
Востаннє: 30.11.20
Повідомлень: 301

2019-10-25 20:28  
однофамільця!!!
yourgrin 
Новенький


З нами з: 05.03.14
Востаннє: 02.12.20
Повідомлень: 21

2019-11-05 11:28  
Чудовий серіал!
R7DER 
Частий відвідувач


З нами з: 25.05.12
Востаннє: 26.11.20
Повідомлень: 31

2019-12-17 10:09  
Вражаюча гра Саші і просто неймовірна історія. Усім шанувальникам шпигунських пристрастей рекомендую!!!
Cumva 
Свій


З нами з: 03.07.12
Востаннє: 26.11.20
Повідомлень: 74

2020-04-16 05:36  
Вражаюча історія. Подивився за один присіст.
І сплакнув у кінці(

Ваш часовий пояс: GMT + 2 Години

Нова тема   Відповісти