Ясновидець (Сезон 3) / Psych (Season 3) (2008-2009) 720p Ukr/Eng

Нові коментарі

Нова тема   Відповісти
Автор Повідомлення
Anonymous 







2019-10-24 23:07  
Ясновидець (Сезон 3) / Psych (Season 3) (2008-2009) 720p Ukr/Eng




Ясновидець (Сезон 3) / Psych (Season 3) (2008-2009) 720p Ukr/Eng
Український постер від Gelios'а:



Жанр: комедія, кримінальний, детектив
Країна: США



Кінокомпанія: USA Network
Актори: Джеймс Родай, Дьюлі Хілл, Меггі Лоусон, Тімоті Омандсон, Кірстен Нелсон.

Сюжет:
Головний герой Шон Спенсер під час перегляду новин дізнається хто пограбував магазин і повідомляє про це поліції. Прийшовши до відділку за винагородою копи йому не вірять і думають, що він був спільником. Тут Шону доводиться вдати ніби він ясновидець, щоб його не заарештували, але насправді ніяких паранормальних здібностей в нього нема. У дитинстві його батько поліцейський навчив помічати різні деталі на які звичайні люди не звертають увагу і навчив детективним навичкам. Надалі він зі своїм другом Ґасом відкриють приватне детективне агентство та будуть вдавати ніби він дійсно ясновидець та допомагати поліції розкривати справи.


Тривалість: 1 серія: 45хв (цілком серій: 16 з 16)
Перелік серій
1 Jul 18, 2008 Ghosts
2 Jul 25, 2008 Murder?...Anyone?...Anyone?...Bueller?
3 Aug 01, 2008 Daredevils!
4 Aug 08, 2008 The Greatest Adventure in the History of Basic Cable
5 Aug 15, 2008 Disco Didn't Die. It Was Murdered!
6 Aug 22, 2008 There Might Be Blood
7 Sep 05, 2008 Talk Derby to Me
8 Sep 12, 2008 Gus Walks into a Bank
9 Nov 28, 2008 Christmas Joy
10 Jan 09, 2009 Six Feet Under the Sea
11 Jan 16, 2009 Lassie Did a Bad, Bad Thing
12 Jan 23, 2009 Earth, Wind and...Wait for It
13 Jan 30, 2009 Any Given Friday Night at 10PM, 9PM Central
14 Feb 06, 2009 Truer Lies
15 Feb 13, 2009 Tuesday the 17th
16 Feb 20, 2009 An Evening with Mr. Yang
Якість: 720p
Відео:
кодек:
розмір кадру: 1280 х 720
бітрейт: 4100 кб/с

Аудіо # 1:
мова: українська
переклад: багатоголосий закадровий
кодек: 2.0
бітрейт: 192 кб/с

Джерело озвучення:


Аудіо # 2:
мова: англійська
переклад: оригінал
кодек: AC-3 5.1
бітрейт: 384
Info
Video
ID : 1
Format : AVC
Format/Info : Advanced Video Codec
Format profile : [email protected]
Format settings : 2 Ref Frames
Format settings, CABAC : No
Format settings, Reference : 2 frames
Format settings, GOP : N=1
Codec ID : V_MPEG4/ISO/AVC
Duration : 43 min 0 s
Bit rate : 4 127 kb/s
Width : 1 280 pixels
Height : 720 pixels
Display aspect ratio : 16:9
Frame rate mode : Constant
Frame rate : 23.976 (23976/1000) FPS
Color space : YUV
Chroma subsampling : 4:2:0
Bit depth : 8 bits
Scan type : Progressive
Bits/(Pixel*Frame) : 0.187
Stream size : 1.24 GiB (88%)
Language : English
Default : Yes
Forced : No
Color range : Limited
Color primaries : BT.709
Transfer characteristics : BT.709
Matrix coefficients : BT.709

Audio #1
ID : 2
Format : AC-3
Format/Info : Audio Coding 3
Commercial name : Dolby Digital
Codec ID : A_AC3
Duration : 43 min 0 s
Bit rate mode : Constant
Bit rate : 192 kb/s
Channel(s) : 2 channels
Channel layout : L R
Sampling rate : 48.0 kHz
Frame rate : 31.250 FPS (1536 SPF)
Compression mode : Lossy
Stream size : 59.1 MiB (4%)
Title : MVO - Індиго ТВ
Language : Ukrainian
Service kind : Complete Main
Default : Yes
Forced : No

Audio #2
ID : 3
Format : AC-3
Format/Info : Audio Coding 3
Commercial name : Dolby Digital
Codec ID : A_AC3
Duration : 43 min 0 s
Bit rate mode : Constant
Bit rate : 384 kb/s
Channel(s) : 6 channels
Channel layout : L R C LFE Ls Rs
Sampling rate : 48.0 kHz
Frame rate : 31.250 FPS (1536 SPF)
Compression mode : Lossy
Stream size : 118 MiB (8%)
Language : English
Service kind : Complete Main
Default : No
Forced : No
скріншоти





Подяка: пану, що побажав залишитися анонімним за запис сирих доріжок.
Джерело:
Особиста оцінка: 10 - без зайвих вагань рекомендую всім!


Бронзовий реліз (на рейтинг впливає 75% завантаженого)
 Трекер:    Зареєстрований   

Завантажити / скачати серіал українською



відео для новачків



 Зареєстрований:   2019-10-24 23:07
 Розмір:   22.17 GB 
 Оцінка серіалу:   8.4/10 (Голосів: 10)
   
VaLeXaR 
Новенький


З нами з: 11.04.14
Востаннє: 23.11.20
Повідомлень: 14

2019-11-02 19:15  
Серіал супер. Коли наступний сезон?
Anonymous 







2019-11-03 19:45  
VaLeXaR написано:
Коли наступний сезон?

Поки зайнятий іншим серіалом і якщо усе за планом піде то ясновидця до кінця місяця зроблю.

VaLeXaR 
Новенький


З нами з: 11.04.14
Востаннє: 23.11.20
Повідомлень: 14

2019-11-04 22:10  
Anonymous, дякую!
Ваш часовий пояс: GMT + 2 Години

Нова тема   Відповісти