Пригоди Вінні Пуха / The Many Adventures of Winnie the Pooh (1977) Remux 1080p Ukr/Eng | Sub Eng

Нові коментарі

Нова тема   Відповісти
Автор Повідомлення
sergiyko.5 
VIP


З нами з: 25.02.16
Востаннє: 26.02.20
Повідомлень: 2954

2019-10-22 22:16  


Пригоди Вінні Пуха / The Many Adventures of Winnie the Pooh (1977) Remux 1080p Ukr/Eng | Sub Eng

Пригоди Вінні Пуха / The Many Adventures of Winnie the Pooh (1977) Remux 1080p Ukr/Eng | Sub Eng

Жанр: мюзікл, комедія
Країна: США
Режисер: Джон Лоунсбері, Вольфганг Райтерман

Сюжет:
Вінні Пух - герой дітей багатьох поколінь. Вигаданий Олександром Мілном, ведмедик пережив багато втілень. Найближчою до оригіналу є версія студії Дісней. Глядачі можуть насолоджуватися пригодами Вінні та його друзів, створеними найкращими мультиплікаторами.




Тривалість: 01:13:59
Якість: Remux

Відео: кодек: розмір кадру: 1920 х 1080 бітрейт: 23800 кб/с
Аудіо # 1: мова: українська переклад: професійний дубльований кодек: 2.0 бітрейт: 192 кб/с
Аудіо # 2: мова: англійська переклад: оригінал кодек: -HD MA 5.1 бітрейт: 3047 кб/с
Субтитри: мова: англійська тип: пререндерні формат: *.pgs
Про файл:
General
Unique ID : 68763204325058638763251072302010185937 (0x33BB4FB9C19701BA8AF702646A0DB8D1)
Complete name : D:\Documents\Torrents\MULT\The.Many.Adventures.of.Winnie.the.Pooh.1977.1080p.Remux.
Format :
Format version : Version 4
File size : 14.0 GiB
Duration : 1 h 14 min
Overall bit rate mode : Variable
Overall bit rate : 27.0 Mb/s
Movie name : The Many Adventures of Winnie the Pooh 1977 by sergiyko
Encoded date : UTC 2019-10-22 19:51:15
Writing application : v36.0.0 ('Is That Jazz?') 64-bit
Writing library : libebml v1.3.9 + v1.5.2
Cover : Yes
Attachments : cover.jpeg

Video
ID : 1
Format : AVC
Format/Info : Advanced Video Codec
Format profile : [email protected]
Format settings : CABAC / 4 Ref Frames
Format settings, CABAC : Yes
Format settings, Reference : 4 frames
Codec ID : V_MPEG4/ISO/AVC
Duration : 1 h 13 min
Bit rate mode : Variable
Bit rate : 23.8 Mb/s
Maximum bit rate : 29.0 Mb/s
Width : 1 920 pixels
Height : 1 080 pixels
Display aspect ratio : 16:9
Frame rate mode : Constant
Frame rate : 23.976 (24000/1001) FPS
Color space : YUV
Chroma subsampling : 4:2:0
Bit depth : 8 bits
Scan type : Progressive
Bits/(Pixel*Frame) : 0.478
Stream size : 12.3 GiB (88%)
Title : The Many Adventures of Winnie the Pooh 1977
Language : English
Default : Yes
Forced : No

Audio #1
ID : 2
Format : AC-3
Format/Info : Audio Coding 3
Commercial name : Dolby Digital
Codec ID : A_AC3
Duration : 1 h 14 min
Bit rate mode : Constant
Bit rate : 192 kb/s
Channel(s) : 2 channels
Channel layout : L R
Sampling rate : 48.0 kHz
Frame rate : 31.250 FPS (1536 SPF)
Bit depth : 16 bits
Compression mode : Lossy
Stream size : 102 MiB (1%)
Title : DUB 2.0ch
Language : Ukrainian
Service kind : Complete Main
Default : Yes
Forced : Yes

Audio #2
ID : 3
Format : XLL
Format/Info : Digital Theater Systems
Commercial name : -HD Master Audio
Codec ID : A_DTS
Duration : 1 h 14 min
Bit rate mode : Variable
Bit rate : 3 047 kb/s
Channel(s) : 6 channels
Channel layout : C L R Ls Rs LFE
Sampling rate : 48.0 kHz
Frame rate : 93.750 FPS (512 SPF)
Bit depth : 24 bits
Compression mode : Lossless
Stream size : 1.58 GiB (11%)
Title : Original
Language : English
Default : No
Forced : No

Text #1
ID : 4
Format : PGS
Muxing mode : zlib
Codec ID : S_HDMV/PGS
Codec ID/Info : Picture based subtitle format used on BDs/HD-DVDs
Duration : 1 h 12 min
Bit rate : 47.2 kb/s
Count of elements : 2286
Stream size : 24.4 MiB (0%)
Language : English
Default : No
Forced : No

Text #2
ID : 5
Format : PGS
Muxing mode : zlib
Codec ID : S_HDMV/PGS
Codec ID/Info : Picture based subtitle format used on BDs/HD-DVDs
Duration : 1 h 12 min
Bit rate : 10.6 kb/s
Count of elements : 298
Stream size : 5.48 MiB (0%)
Language : English
Default : No
Forced : No

Menu
00:00:00.000 : en:01. Open Credits / "Winnie the Pooh"
00:03:14.360 : en:02. Winnie the Pooh and the Honey Tree
00:04:04.243 : en:03. "Up, Down, Touch the Ground"
00:05:59.734 : en:04. "Rumbly in My Tumbly"
00:07:38.332 : en:05. "Little Black Rain Cloud"
00:13:47.827 : en:06. Pooh Pays a Visit to Rabbit
00:16:43.585 : en:07. Owl Tries to Help
00:19:14.319 : en:08. Pooh Remains Stuck
00:23:37.541 : en:09. Today Is the Day!
00:25:49.714 : en:10. Winnie the Pooh and the Blustery Day
00:30:10.892 : en:11. Piglet and Pooh Visit Owl
00:33:02.480 : en:12. A Blustery Night and a New Arrival
00:36:36.569 : en:13. "The Wonderful Thing About Tiggers"
00:36:51.709 : en:14. "Heffalumps and Woozles"
00:41:20.311 : en:15. "The Rain, Rain, Rain, Came Down, Down, Down"
00:45:12.000 : en:16. A Hero Party ("Hip Hooray for Winnie the Pooh")
00:49:33.720 : en:17. Winnie the Pooh and Tigger Too
00:55:36.958 : en:18. Lost!
01:00:29.125 : en:19. The First Snowfall
01:04:10.972 : en:20. Pooh Is Having a Problem
01:11:35.749 : en:21. The Final Chapter
Скріншоти:


Придбання, синхронізація: sergiyko


Золотий реліз (завантажене не впливає на рейтинг)
 Трекер:    Зареєстрований   

Завантажити / скачати мультфільм українською



відео для новачків



 Зареєстрований:   2019-10-22 22:16
 Розмір:   13.97 GB 
 Оцінка мультфільму:   10/10 (Голосів: 6)
   
gary03 
Новенький


З нами з: 07.03.17
Востаннє: 17.02.20
Повідомлень: 11

2020-01-27 21:23  
Доброго вечора! Роздайте, будь ласка...
Ваш часовий пояс: GMT + 2 Години

Нова тема   Відповісти