Некромант / Nekrotronic (2018) 1080p H.265 Ukr/Eng | Sub Eng

Нові коментарі

Нова тема   Відповісти
Автор Повідомлення
Anonymous 







2019-10-22 21:44  
Некромант / Nekrotronic (2018) 1080p H.265 Ukr/Eng | Sub Eng

Некромант / Nekrotronic (2018) 1080p H.265 Ukr/Eng | Sub Eng


Жанр: екшн, жахи, комедія, фантастика
Країна: Австралія
Кінокомпанія: Guerilla Films, Hopscotch Features
Режисер: Кія Роуч-Тернер
Актори: Бен О'Тул, Моніка Беллуччі, Бенедікт Гарді, Керолайн Форд, Девід Біміш, Чармейн Бінгва

Сюжет:
Молодий чоловік дізнається, що він — частина секретної секти чарівників, які вистежують і знищують демонів в інтернеті.

Тривалість: 01:36:43
Якість:

Відео:
кодек: H.265 (HEVC)
розмір кадру: 1920 x 800
бітрейт: 6 892 кб/с
бітова глибина: 10 біт

Увага! Перед завантаженням переконайтесь, що ваш пристрій відтворення (та/або ПЗ) підтримує H.265 (HEVC)

Аудіо # 1:
мова: українська
переклад: професійний дубльований
кодек: 5.1
бітрейт: 1510 кб/с

Аудіо # 2:
мова: англійська
переклад: оригінал
кодек: 5.1
бітрейт: 1510 кб/с

Субтитри # 1-2: (Full, SDH)
мова: англійська
тип: програмні (м'які)
формат: *.srt


Info
Код:
General
Unique ID                                : 336025028920576645808055533250651597454 (0xFCCC1107DBF76E01CCAF65E9BB0FAA8E)
Complete name                            : Nekrotronic (2018) 1080p H.265 [UKR_ENG] [Hurtom].
Format                                   :
Format version                           : Version 4
File size                                : 6.70 GiB
Duration                                 : 1 h 36 min
Overall bit rate                         : 9 914 kb/s
Movie name                               : Некромант / Nekrotronic (2018)
Encoded date                             : UTC 2019-10-27 11:27:04
Writing application                      : v20.0.0 ('I Am The Sun') 64-bit
Writing library                          : libebml v1.3.5 + v1.4.8
Cover                                    : Yes
Attachments                              : Cover.jpg

Video
ID                                       : 1
Format                                   : HEVC
Format/Info                              : High Efficiency Video Coding
Format profile                           : Main [email protected]@High
Codec ID                                 : V_MPEGH/ISO/HEVC
Duration                                 : 1 h 36 min
Bit rate                                 : 6 891 kb/s
Width                                    : 1 920 pixels
Height                                   : 800 pixels
Display aspect ratio                     : 2.40:1
Frame rate mode                          : Constant
Frame rate                               : 23.976 (24000/1001) FPS
Color space                              : YUV
Chroma subsampling                       : 4:2:0
Bit depth                                : 10 bits
Bits/(Pixel*Frame)                       : 0.187
Stream size                              : 4.66 GiB (70%)
Title                                    : Некромант / Nekrotronic (2018)
Language                                 : English
Default                                  : Yes
Forced                                   : No
Color range                              : Limited
Color primaries                          : BT.709
Transfer characteristics                 : BT.709
Matrix coefficients                      : BT.709

Audio #1
ID                                       : 2
Format                                   :
Format/Info                              : Digital Theater Systems
Codec ID                                 : A_DTS
Duration                                 : 1 h 36 min
Bit rate mode                            : Constant
Bit rate                                 : 1 509 kb/s
Channel(s)                               : 6 channels
Channel layout                           : C L R Ls Rs LFE
Sampling rate                            : 48.0 kHz
Frame rate                               : 93.750 FPS (512 SPF)
Bit depth                                : 24 bits
Compression mode                         : Lossy
Stream size                              : 1.02 GiB (15%)
Title                                    : / 5.1 Ch / 1509 kbps / ПД
Language                                 : Ukrainian
Default                                  : Yes
Forced                                   : Yes

Audio #2
ID                                       : 3
Format                                   :
Format/Info                              : Digital Theater Systems
Codec ID                                 : A_DTS
Duration                                 : 1 h 36 min
Bit rate mode                            : Constant
Bit rate                                 : 1 509 kb/s
Channel(s)                               : 6 channels
Channel layout                           : C L R Ls Rs LFE
Sampling rate                            : 48.0 kHz
Frame rate                               : 93.750 FPS (512 SPF)
Bit depth                                : 16 bits
Compression mode                         : Lossy
Stream size                              : 1.02 GiB (15%)
Title                                    : / 5.1 Ch / 1509 kbps / Original
Language                                 : English
Default                                  : No
Forced                                   : No

Text #1
ID                                       : 4
Format                                   : UTF-8
Codec ID                                 : S_TEXT/UTF8
Codec ID/Info                            : UTF-8 Plain Text
Duration                                 : 1 h 30 min
Bit rate                                 : 39 b/s
Count of elements                        : 997
Stream size                              : 26.6 KiB (0%)
Title                                    : Full
Language                                 : English
Default                                  : No
Forced                                   : No

Text #2
ID                                       : 5
Format                                   : UTF-8
Codec ID                                 : S_TEXT/UTF8
Codec ID/Info                            : UTF-8 Plain Text
Duration                                 : 1 h 31 min
Bit rate                                 : 49 b/s
Count of elements                        : 1330
Stream size                              : 32.8 KiB (0%)
Title                                    : SDH
Language                                 : English
Default                                  : No
Forced                                   : No

Menu
00:00:00.000                             : en:Chapter 1
00:05:02.385                             : en:Chapter 2
00:09:52.591                             : en:Chapter 3
00:17:47.440                             : en:Chapter 4
00:25:40.329                             : en:Chapter 5
00:33:46.315                             : en:Chapter 6
00:38:33.101                             : en:Chapter 7
00:42:50.275                             : en:Chapter 8
00:47:39.481                             : en:Chapter 9
00:55:36.707                             : en:Chapter 10
00:59:54.381                             : en:Chapter 11
01:03:45.029                             : en:Chapter 12
01:11:30.035                             : en:Chapter 13
01:17:15.713                             : en:Chapter 14
01:22:25.022                             : en:Chapter 15
01:31:23.560                             : en:Chapter 16
Світлини




Джерело: &
Особиста оцінка: 0 - не дивився


 Трекер:    Зареєстрований   

Завантажити / скачати фільм українською



відео для новачків



 Зареєстрований:   2019-10-27 16:15
 Розмір:   6.7 GB 
 Оцінка фільму:   10/10 (Голосів: 8)
   
Інші релізи
   Некромант / Nekrotronic (2018) 1080p Ukr/Eng | Sub Eng staf777  3 / 0   9.44 GB   2019-10-28 21:42 
   Некромант / Nekrotronic (2018) 720p Ukr/Eng | Sub Eng staf777  2 / 0   5.47 GB   2019-10-28 20:40 
   Некромант / Nekrotronic (2018) Remux 1080p Ukr/Eng | Sub Eng staf777  0 / 0   24.73 GB   2019-10-27 21:39 
   Некромант / Nekrotronic (2018) antik_2008  2 / 0   1.59 GB   2019-10-25 18:10 
   Некромант / Nekrotronic (2018) AVC Ukr/Eng | Sub Eng 11FrYkT  3 / 0   1.84 GB   2019-10-25 12:28 
Ваш часовий пояс: GMT + 2 Години

Нова тема   Відповісти