Сніданок на узбіччі / Коли з'являються незнайомці / When Strangers Appear (2001) AVC 2xUkr/Eng | Sub Eng

Нові коментарі

Нова тема   Відповісти
Автор Повідомлення
Anonymous 







2019-10-22 20:35  
Сніданок на узбіччі / Коли з'являються незнайомці / When Strangers Appear (2001) AVC 2xUkr/Eng | Sub Eng

Сніданок на узбіччі / Коли з'являються незнайомці / When Strangers Appear (2001) AVC 2xUkr/Eng | Sub Eng


Жанр: трилер, драма, детектив, бойовик
Країна: Австралія, Нова Зеландія, США
Кінокомпанія: Beyond Films, Midnight Film Productions Limited, Persona Non Grata Films
Режисер: Скотт Рейнольдс / Scott Reynolds
Актори: Рада Мітчелл / Radha Mitchell, Джош Лукас / Josh Lucas, Беррі Вотсон / Barry Watson, Кевін Андерсон / Kevin Anderson, Джонатан Блік / Jonathan Blick, Ерін Вілсон / Eryn Wilson, Майкл Лоу / Michael Lowe

Сюжет:
Один поранений. Група таємничих незнайомців. У кожного своя історія. Кому вірити? Коли переляканий, стікаючи кров'ю Метт входить в загублене кафе, яким володіє Бет, там закручується серія загадкових подій. Троє зовні нешкідливих незнайомців прибувають в кафе, але, як стверджує Метт, вони шукають його, щоб вбити.
Бет вирішує врятувати Метта, але його подальше зникнення і подальше спілкування з гостями тільки ще більше заплутують ситуацію, і Бет все глибше і глибше занурюється в тенета їх небезпечних ігор. Коли Бет, нарешті, розуміє, хто говорить правду, вона повинна використовувати всю свою хитрість, щоб врятувати тепер вже власне життя.

Тривалість: 01:40:24
Якість: AVC

Відео:
кодек:
розмір кадру: 1024 x 436
бітрейт: 2 527 кб/с

Аудіо # 1:
мова: українська
переклад: багатоголосий закадровий
кодек: AC-3 2.0
бітрейт: 192 кб/с

Аудіо # 2:
мова: українська
переклад: багатоголосий закадровий
кодек: AC-3 2.0
бітрейт: 192 кб/с

Аудіо # 3:
мова: англійська
переклад: оригінал
кодек: AC-3 5.1
бітрейт: 384 кб/с

Субтитри # 1: (SDH)
мова: англійська
тип: програмні (м'які)
формат: *.srt


Info
Код:
General
Unique ID                                : 53856116985332793343333168131384952355 (0x28844F9325D71922060B0FB4D24A4623)
Complete name                            : When Strangers Appear (2001) AVC [2xUKR_ENG] [Hurtom].
Format                                   :
Format version                           : Version 4
File size                                : 2.31 GiB
Duration                                 : 1 h 40 min
Overall bit rate                         : 3 299 kb/s
Movie name                               : Сніданок на узбіччі / Коли з'являються незнайомці / When Strangers Appear (2001)
Encoded date                             : UTC 2019-10-22 18:27:35
Writing application                      : v20.0.0 ('I Am The Sun') 64-bit
Writing library                          : libebml v1.3.5 + v1.4.8
Cover                                    : Yes
Attachments                              : Cover.jpg

Video
ID                                       : 1
Format                                   : AVC
Format/Info                              : Advanced Video Codec
Format profile                           : [email protected]
Format settings                          : CABAC / 10 Ref Frames
Format settings, CABAC                   : Yes
Format settings, Reference frames        : 10 frames
Codec ID                                 : V_MPEG4/ISO/AVC
Duration                                 : 1 h 40 min
Bit rate                                 : 2 527 kb/s
Width                                    : 1 024 pixels
Height                                   : 436 pixels
Display aspect ratio                     : 2.35:1
Frame rate mode                          : Constant
Frame rate                               : 23.976 (24000/1001) FPS
Color space                              : YUV
Chroma subsampling                       : 4:2:0
Bit depth                                : 8 bits
Scan type                                : Progressive
Bits/(Pixel*Frame)                       : 0.236
Stream size                              : 1.77 GiB (77%)
Title                                    : Сніданок на узбіччі / Коли з'являються незнайомці / When Strangers Appear (2001)
Writing library                          : core 157 r2935 545de2f
Encoding settings                        : cabac=1 / ref=10 / deblock=1:-3:-3 / analyse=0x3:0x133 / me=umh / subme=10 / psy=1 / psy_rd=1.02:0.08 / mixed_ref=1 / me_range=32 / chroma_me=1 / trellis=2 / 8x8dct=1 / cqm=0 / deadzone=21,11 / fast_pskip=0 / chroma_qp_offset=-3 / threads=3 / lookahead_threads=1 / sliced_threads=0 / nr=0 / decimate=1 / interlaced=0 / bluray_compat=0 / constrained_intra=0 / bframes=12 / b_pyramid=2 / b_adapt=2 / b_bias=0 / direct=3 / weightb=1 / open_gop=0 / weightp=2 / keyint=240 / keyint_min=23 / scenecut=40 / intra_refresh=0 / rc_lookahead=40 / rc=2pass / mbtree=1 / bitrate=2527 / ratetol=1.0 / qcomp=0.60 / qpmin=10 / qpmax=51 / qpstep=4 / cplxblur=20.0 / qblur=0.5 / vbv_maxrate=50000 / vbv_bufsize=62500 / nal_hrd=none / filler=0 / ip_ratio=1.40 / aq=1:1.00
Language                                 : English
Default                                  : Yes
Forced                                   : No

Audio #1
ID                                       : 2
Format                                   : AC-3
Format/Info                              : Audio Coding 3
Commercial name                          : Dolby Digital
Codec ID                                 : A_AC3
Duration                                 : 1 h 40 min
Bit rate mode                            : Constant
Bit rate                                 : 192 kb/s
Channel(s)                               : 2 channels
Channel layout                           : L R
Sampling rate                            : 48.0 kHz
Frame rate                               : 31.250 FPS (1536 SPF)
Bit depth                                : 16 bits
Compression mode                         : Lossy
Stream size                              : 138 MiB (6%)
Title                                    : / 2.0 Ch / 192 kbps / БЗ / K1
Language                                 : Ukrainian
Service kind                             : Complete Main
Default                                  : Yes
Forced                                   : Yes

Audio #2
ID                                       : 3
Format                                   : AC-3
Format/Info                              : Audio Coding 3
Commercial name                          : Dolby Digital
Codec ID                                 : A_AC3
Duration                                 : 1 h 40 min
Bit rate mode                            : Constant
Bit rate                                 : 192 kb/s
Channel(s)                               : 2 channels
Channel layout                           : L R
Sampling rate                            : 48.0 kHz
Frame rate                               : 31.250 FPS (1536 SPF)
Bit depth                                : 16 bits
Compression mode                         : Lossy
Stream size                              : 138 MiB (6%)
Title                                    : / 2.0 Ch / 192 kbps / БЗ / Novy Kanal
Language                                 : Ukrainian
Service kind                             : Complete Main
Default                                  : No
Forced                                   : No

Audio #3
ID                                       : 4
Format                                   : AC-3
Format/Info                              : Audio Coding 3
Commercial name                          : Dolby Digital
Codec ID                                 : A_AC3
Duration                                 : 1 h 40 min
Bit rate mode                            : Constant
Bit rate                                 : 384 kb/s
Channel(s)                               : 6 channels
Channel layout                           : L R C LFE Ls Rs
Sampling rate                            : 48.0 kHz
Frame rate                               : 31.250 FPS (1536 SPF)
Bit depth                                : 16 bits
Compression mode                         : Lossy
Stream size                              : 276 MiB (12%)
Title                                    : / 5.1 Ch / 384 kbps / Original
Language                                 : English
Service kind                             : Complete Main
Default                                  : No
Forced                                   : No

Text
ID                                       : 5
Format                                   : UTF-8
Codec ID                                 : S_TEXT/UTF8
Codec ID/Info                            : UTF-8 Plain Text
Duration                                 : 1 h 40 min
Bit rate                                 : 35 b/s
Count of elements                        : 801
Stream size                              : 26.0 KiB (0%)
Title                                    : SDH
Language                                 : English
Default                                  : No
Forced                                   : No
Світлини




Джерело: &
Особиста оцінка: 0 - не дивився


Срібний реліз (на рейтинг впливає 50% завантаженого)
 Трекер:    Зареєстрований   

Завантажити / скачати фільм українською



відео для новачків



 Зареєстрований:   2019-10-22 20:35
 Розмір:   2.31 GB 
 Оцінка фільму:   7/10 (Голосів: 3)
   
Ваш часовий пояс: GMT + 2 Години

Нова тема   Відповісти