Сніданок на узбіччі / Коли з'являються незнайомці / When Strangers Appear (2001) 2xUkr/Eng | Sub Eng

Нові коментарі

Нова тема   Відповісти
Автор Повідомлення
Anonymous 







2019-10-22 20:33  
Сніданок на узбіччі / Коли з'являються незнайомці / When Strangers Appear (2001) 2xUkr/Eng | Sub Eng

Сніданок на узбіччі / Коли з'являються незнайомці / When Strangers Appear (2001) 2xUkr/Eng | Sub Eng


Жанр: трилер, драма, детектив, бойовик
Країна: Австралія, Нова Зеландія, США
Кінокомпанія: Beyond Films, Midnight Film Productions Limited, Persona Non Grata Films
Режисер: Скотт Рейнольдс / Scott Reynolds
Актори: Рада Мітчелл / Radha Mitchell, Джош Лукас / Josh Lucas, Беррі Вотсон / Barry Watson, Кевін Андерсон / Kevin Anderson, Джонатан Блік / Jonathan Blick, Ерін Вілсон / Eryn Wilson, Майкл Лоу / Michael Lowe

Сюжет:
Один поранений. Група таємничих незнайомців. У кожного своя історія. Кому вірити? Коли переляканий, стікаючи кров'ю Метт входить в загублене кафе, яким володіє Бет, там закручується серія загадкових подій. Троє зовні нешкідливих незнайомців прибувають в кафе, але, як стверджує Метт, вони шукають його, щоб вбити.

Бет вирішує врятувати Метта, але його подальше зникнення і подальше спілкування з гостями тільки ще більше заплутують ситуацію, і Бет все глибше і глибше занурюється в тенета їх небезпечних ігор. Коли Бет, нарешті, розуміє, хто говорить правду, вона повинна використовувати всю свою хитрість, щоб врятувати тепер вже власне життя.

Тривалість: 01:40:24
Якість:

Відео:
кодек:
розмір кадру: 720 x 304
бітрейт: 1 750 кб/с

Аудіо # 1:
мова: українська
переклад: багатоголосий закадровий
кодек: AC-3 2.0
бітрейт: 192 кб/с

Аудіо # 2:
мова: українська
переклад: багатоголосий закадровий
кодек: AC-3 2.0
бітрейт: 192 кб/с

Аудіо # 3:
мова: англійська
переклад: оригінал
кодек: AC-3 5.1
бітрейт: 384 кб/с

Субтитри # 1: (SDH)
мова: англійська
тип: програмні (м'які)
формат: *.srt


Info
Код:
General
Unique ID                                : 152026922268105510892256517185947881831 (0x725F51F84B4B0A383616FA9AAF64D167)
Complete name                            : When Strangers Appear (2001) [2xUKR_ENG] [Hurtom].
Format                                   :
Format version                           : Version 4
File size                                : 1.77 GiB
Duration                                 : 1 h 40 min
Overall bit rate                         : 2 522 kb/s
Movie name                               : Сніданок на узбіччі / Коли з'являються незнайомці / When Strangers Appear (2001)
Encoded date                             : UTC 2019-10-22 18:29:00
Writing application                      : v20.0.0 ('I Am The Sun') 64-bit
Writing library                          : libebml v1.3.5 + v1.4.8
Cover                                    : Yes
Attachments                              : Cover.jpg

Video
ID                                       : 1
Format                                   : MPEG-4 Visual
Format profile                           : Advanced [email protected]
Format settings                          : BVOP1 / Custom Matrix
Format settings, BVOP                    : 1
Format settings, QPel                    : No
Format settings, GMC                     : No warppoints
Format settings, Matrix                  : Custom
Codec ID                                 : V_MS/VFW/FOURCC /
Codec ID/Hint                            :
Duration                                 : 1 h 40 min
Bit rate                                 : 1 750 kb/s
Width                                    : 720 pixels
Height                                   : 304 pixels
Display aspect ratio                     : 2.35:1
Frame rate mode                          : Constant
Frame rate                               : 23.976 (23976/1000) FPS
Color space                              : YUV
Chroma subsampling                       : 4:2:0
Bit depth                                : 8 bits
Scan type                                : Progressive
Compression mode                         : Lossy
Bits/(Pixel*Frame)                       : 0.333
Stream size                              : 1.23 GiB (69%)
Title                                    : Сніданок на узбіччі / Коли з'являються незнайомці / When Strangers Appear (2001)
Writing library                          : 73
Default                                  : Yes
Forced                                   : No

Audio #1
ID                                       : 2
Format                                   : AC-3
Format/Info                              : Audio Coding 3
Commercial name                          : Dolby Digital
Codec ID                                 : A_AC3
Duration                                 : 1 h 40 min
Bit rate mode                            : Constant
Bit rate                                 : 192 kb/s
Channel(s)                               : 2 channels
Channel layout                           : L R
Sampling rate                            : 48.0 kHz
Frame rate                               : 31.250 FPS (1536 SPF)
Bit depth                                : 16 bits
Compression mode                         : Lossy
Stream size                              : 138 MiB (8%)
Title                                    : / 2.0 Ch / 192 kbps / БЗ / K1
Language                                 : Ukrainian
Service kind                             : Complete Main
Default                                  : Yes
Forced                                   : Yes

Audio #2
ID                                       : 3
Format                                   : AC-3
Format/Info                              : Audio Coding 3
Commercial name                          : Dolby Digital
Codec ID                                 : A_AC3
Duration                                 : 1 h 40 min
Bit rate mode                            : Constant
Bit rate                                 : 192 kb/s
Channel(s)                               : 2 channels
Channel layout                           : L R
Sampling rate                            : 48.0 kHz
Frame rate                               : 31.250 FPS (1536 SPF)
Bit depth                                : 16 bits
Compression mode                         : Lossy
Stream size                              : 138 MiB (8%)
Title                                    : / 2.0 Ch / 192 kbps / БЗ / Novy Kanal
Language                                 : Ukrainian
Service kind                             : Complete Main
Default                                  : No
Forced                                   : No

Audio #3
ID                                       : 4
Format                                   : AC-3
Format/Info                              : Audio Coding 3
Commercial name                          : Dolby Digital
Codec ID                                 : A_AC3
Duration                                 : 1 h 40 min
Bit rate mode                            : Constant
Bit rate                                 : 384 kb/s
Channel(s)                               : 6 channels
Channel layout                           : L R C LFE Ls Rs
Sampling rate                            : 48.0 kHz
Frame rate                               : 31.250 FPS (1536 SPF)
Bit depth                                : 16 bits
Compression mode                         : Lossy
Stream size                              : 276 MiB (15%)
Title                                    : / 5.1 Ch / 384 kbps / Original
Language                                 : English
Service kind                             : Complete Main
Default                                  : No
Forced                                   : No

Text
ID                                       : 5
Format                                   : UTF-8
Codec ID                                 : S_TEXT/UTF8
Codec ID/Info                            : UTF-8 Plain Text
Duration                                 : 1 h 40 min
Bit rate                                 : 35 b/s
Count of elements                        : 801
Stream size                              : 26.0 KiB (0%)
Title                                    : SDH
Language                                 : English
Default                                  : No
Forced                                   : No
Світлини




Джерело: &
Особиста оцінка: 0 - не дивився


Срібний реліз (на рейтинг впливає 50% завантаженого)
 Трекер:    Зареєстрований   

Завантажити / скачати фільм українською



відео для новачків



 Зареєстрований:   2019-10-22 20:33
 Розмір:   1.77 GB 
 Оцінка фільму:   6.8/10 (Голосів: 4)
   
Ваш часовий пояс: GMT + 2 Години

Нова тема   Відповісти