Вартові Галактики / Marvel's Guardians of the Galaxy (Сезон 2) (2017) AVC

Нові коментарі

Нова тема   Відповісти
Автор Повідомлення
sergiyko.5 
VIP


З нами з: 25.02.16
Востаннє: 14.12.19
Повідомлень: 2815

2019-10-22 07:42  
Всі одноіменні релізи на трекері

Вартові Галактики / Marvel's Guardians of the Galaxy (Сезон 2) (2017) AVC


Вартові Галактики / Marvel's Guardians of the Galaxy (Сезон 2) (2017) AVC

Жанр: Супергероїка, Пригоди, Екшн, Наукова Фантастика
Країна: США
Кінокомпанія: Marvel Television, Disney XD
Актори: Will Friedle, Trevor Devall, Vanessa Marshall, Kevin Michael Richardson, David Sobolov

Сюжет:
Цю компанію об'єднує одне - кожен втратив для себе щось цінне. Хтось позбувся будинку, хтось залишився без сім'ї та друзів, а хтось просто втратив віру в свою мрію. Так чи інакше, всі вони були позбавлені нормального життя, але згуртувавшись разом, перетворилися на незламну команду Вартових Галактики. Неповторний Єнот, чий арсенал озброєння перевершує всі мислимі межі. Могутній Дракс, здатний розплющити черепушку однією рукою. Зеленошкіра дівчина-кіборг Гамора, що володіє всіма стилями рукопашного бою. Деревоподібний Грут, що віддає перевагу грубій силі. І сам Зоряний Лицар, що зміг згуртувати цю різношерсту банду. Всі вони готові ризикнути життям і піти на будь-яку авантюру, заради порятунку Галактики.



Тривалість: 1 серія: 22:06 (цілком серій: 26 з 26)
Якість:

Відео: кодек: розмір кадру: 1024 х 576 бітрейт: 1000 кб/с
Аудіо: мова: українська переклад: професійний дубльований кодек: 2.0 бітрейт: 256 кб/с
Озвучення: НЛО-ТБ
Перелік серій
01 Stayin Alive
02 Evolution Rock
03 Pick Up the Pieces
04 Lyin’ Eyes
05 Free Bird
06 Girls Just Wanna Have Fun
07 Black Helmet Woman
08 Right Place, Wrong Time
09 Me And You And A Dog Named Cosmo
10 Can’t Get It Out Of My Head
11 Rock Your Baby
12 It’s Tricky
13 Unfortunate Son
14 Symbiote War Part One – Wild World
15 Symbiote War Part Two – I Will Survive
16 Symbiote War Part Three – Thunder Road
17 Back in Black
18 Knights in Black Helmets
19 Nova Me, Nova You
20 Mr. Roboto
21 Destroyer
22 You Can’t Always Get What You Want
23 I’ve Seen All Good People
24 Another One Bites The Dust
25 You’re No Good
26 Behind Gold Eyes
Про файл:
General
Unique ID : 80862143151682328649578721578931336599 (0x3CD57B771DAF3350F80A96AFD3923597)
Complete name : D:\Documents\Torrents\MULTSER\Marvels. Guardians of the Galaxy S02 \S02E01.Stayin.Alive..
Format :
Format version : Version 4
File size : 202 MiB
Duration : 22 min 7 s
Overall bit rate : 1 274 kb/s
Movie name : rip by sergiyko
Encoded date : UTC 2019-10-06 15:22:02
Writing application : v36.0.0 ('Is That Jazz?') 64-bit
Writing library : libebml v1.3.9 + v1.5.2

Video
ID : 1
Format : AVC
Format/Info : Advanced Video Codec
Format profile : [email protected]
Format settings : CABAC / 12 Ref Frames
Format settings, CABAC : Yes
Format settings, Reference : 12 frames
Codec ID : V_MPEG4/ISO/AVC
Duration : 22 min 7 s
Bit rate : 1 016 kb/s
Width : 1 024 pixels
Height : 576 pixels
Display aspect ratio : 16:9
Frame rate mode : Constant
Frame rate : 23.976 FPS
Color space : YUV
Chroma subsampling : 4:2:0
Bit depth : 8 bits
Scan type : Progressive
Bits/(Pixel*Frame) : 0.072
Stream size : 161 MiB (80%)
Title : S02E01.Stayin.Alive
Writing library : core 157 r2969 d4099dd
Encoding settings : cabac=1 / ref=12 / deblock=1:-1:-1 / analyse=0x3:0x133 / me=umh / subme=9 / psy=1 / psy_rd=0.40:0.00 / mixed_ref=1 / me_range=24 / chroma_me=1 / trellis=2 / 8x8dct=1 / cqm=0 / deadzone=21,11 / fast_pskip=1 / chroma_qp_offset=-2 / threads=18 / lookahead_threads=3 / sliced_threads=0 / nr=0 / decimate=1 / interlaced=0 / bluray_compat=0 / constrained_intra=0 / bframes=8 / b_pyramid=2 / b_adapt=2 / b_bias=0 / direct=3 / weightb=1 / open_gop=0 / weightp=2 / keyint=250 / keyint_min=23 / scenecut=40 / intra_refresh=0 / rc_lookahead=60 / rc=crf / mbtree=1 / crf=19.0 / qcomp=0.70 / qpmin=0 / qpmax=69 / qpstep=4 / ip_ratio=1.40 / aq=1:0.60
Language : English
Default : Yes
Forced : No

Audio
ID : 2
Format : AC-3
Format/Info : Audio Coding 3
Commercial name : Dolby Digital
Codec ID : A_AC3
Duration : 22 min 7 s
Bit rate mode : Constant
Bit rate : 256 kb/s
Channel(s) : 2 channels
Channel layout : L R
Sampling rate : 48.0 kHz
Frame rate : 31.250 FPS (1536 SPF)
Bit depth : 16 bits
Compression mode : Lossy
Stream size : 40.5 MiB (20%)
Title : DUB | NLO TV
Language : Ukrainian
Service kind : Complete Main
Default : Yes
Forced : No
Скріншоти:


Запис/зведення: sergiyko


Бронзовий реліз (на рейтинг впливає 75% завантаженого)
 Трекер:    Зареєстрований   

Завантажити / скачати мультфільм українською



відео для новачків



 Зареєстрований:   2019-10-22 07:42
 Розмір:   5.21 GB 
 Оцінка мультсеріалу:   9.9/10 (Голосів: 7)
   
Ваш часовий пояс: GMT + 2 Години

Нова тема   Відповісти