Чужі (Спеціальне видання) / Aliens (Special Edition) (1986) Remux 1080p Ukr/Eng | Sub Ukr/Eng

Нові коментарі

Нова тема   Відповісти
Автор Повідомлення
MakRA 
VIP


З нами з: 11.11.18
Востаннє: 29.09.20
Повідомлень: 1120

2019-10-22 02:23  
Чужі (Спеціальне видання) / Aliens (Special Edition) (1986) Remux 1080p Ukr/Eng | Sub Ukr/Eng


Українські постери:


Альтернативні обкладинки та постери:








Жанр: екшн, пригодницький, фантастика
Країна: США , Великобританія



Кінокомпанія: Twentieth Century-Fox Productions, Brandywine Productions
Режисер: Джеймс Камерон [James Cameron]
Актори: Сіґурні Вівер [Sigourney Weaver], Керрі Генн [Carrie Henn], Майкл Бін [Michael Biehn], Ленс Генріксен [Lance Henriksen], Пол Рейзер [Paul Reiser], Білл Пeкстон [Bill Paxton], Дженетт Ґолдштейн [Jenette Goldstein], Вільям Гоуп [William Hope], Аль Метюз [Al Matthews], Марк Ролстон [Mark Rolston]

Сюжет:
Єдина виживша після сутички з інопланетним хижаком - офіцер Елен Ріплі - потрапляє на Землю через п'ятдесят сім років після загибелі екіпажу «Настрома». Коли її капсула була знайдена, Ріплі повідомили що вона повинна повернутися назад в свій кошмар, на ту саму планету для з'ясування обставин. Невеликою групою з озброєними десантами, вони відправляються туди, де Чужі вже чекають свою вечерю...


Цікаві факти:

-Фільм був знятий у жанрі бойовик, тоді як перший фільм серії «Чужий» знятий як фільм жахів.
-Після успіху фільму «Термінатор» у 1984 студія «20th Century Fox» довірила знімати сиквел саме Джеймсу Кемерону.
-Загальний бюджет картини склав приблизно 18 мільйонів доларів США.
-Зйомки проходили в Англії на закинутій фабриці під керівництвом «Pinewood Studios».
-Касові збори картини тільки у США склали 86 мільйонів доларів, а міжнародна каса принесла картині загалом 131 мільйон доларів.
-Виконавиця головної ролі — Сігурні Вівер, була номінована на премію «Оскар» за найкращу жіночу роль «Чужі» отримав премію Оскар за найкращий звуковий монтаж та за найкращі спецефекти, вісім премій «Сатурн», включаючи премію за найкращий науково-фантастичний фільм, премію за найкращу жіночу роль (Сігурні Вівер) та премію за найкращу режисуру (Джеймс Кемерон).

-Джеймс Ремар повинен був зіграти Гікса, проте через декілька днів після початку зйомок був замінений на Майкла Б'єна. Офіційна причина — творче непорозуміння з режисером.
-Оператор Дік Буш залишив проект також через творчі непорозуміння з режисером та продюсером стрічки.
-Декорації гнізда Чужих були збережені після зйомок фільму. Згодом вони були використані як декорації заводу «Axis Chemicals» у фільмі «Бетмен».
-Сценарна заявка на фільм була закінчена 21 вересня 1983 та мала назву «Чужий 2». Ось декілька відмінностей та фінальним фільмом:
-Персонажа Картера Берка не було у фільмі, всі його діалоги були віданні доктору О'Ніл, який не полетів разом з Ріплі та Морськими піхотинцями на планету LV-426.
-Після знаходження у відкритому космосі Ріплі була відправлена не на станцію «Gateway Station», а на «Навколоземну станцію Бета» («Earth Station Beta»).
-Планета колоністів називалась «Ахерон», замість LV-426. Дана назва була взята зі сценарію фільму «Чужий».
-Дочка Ріплі була живою. У сценарній заявці навіть була присутня сцена де Ріплі розмовляє з дочкою по відеоконференції. Дочка звинувачує Ріплі, що вона покинула її та полетіла у космос.
-На планеті колоністів було декілька атмосферних установок.
-По ходу фільму із Ріплі, Ньют, та Гікса роблять кокони.
-Чужі, які робили із людей кокони, — іншої породи. Вони виглядали як зменшені копії-альбіноси воїнів.
-Бішоп відмовляється посадити шатл та забрати Ріплі, Ньют, та Гікса, мотивуючи це тим, що ризик зараження інших планет надто високий. Ріплі використовує шатл колоністів та долітає на йому до Сулако. Коли вони зустрічаються на Сулако, Бішоп каже їм «ти була права щодо мене».

Нагороди та номінації:

Фільм було номіновано на 7 «Оскарів», включаючи номінацію «Найкраща актриса» для Сігурні Вівер.
Фільм отримав премію «Оскар» за «Найкращий звуковий монтаж», так за «Найкращі візуальні ефекти».
Стрічка отримала вісім нагород Сатурн («Найкращий науково-фантастичний фільм», «Найкраща жіноча роль» для Сігурні Вівер, «Найкраща чоловіча роль другого плану» для Біллі Пекстона, «Найкраща жіноча роль другого плану» для Дженетт Голдстін та «Найкраща режисура» та «Найкращий сценарій» для Камерона).

На 18 вересня 2018 року фільм займав 69-у позицію у списку «250 кращих фільмів за версією IMDb».


Тривалість: 02:34:27
Якість: Remux 1080p
Відео:
кодек:
розмір кадру: 1920 х 1080
бітрейт: 26,6 Mб/с

Аудіо # 1:
мова: українська
переклад: двоголосий закадровий
кодек: 5.1
бітрейт: 384 кб/с
Про озвучення:
Ролі озвучили:Остап Ступка та Лариса Руснак.
Аудіо # 2:
мова: англійська
переклад: оригінал
кодек: -HD MA 5.1
бітрейт: 3981 кб/с

Аудіо # 3:
мова: англійська
переклад: оригінал
кодек: 5.1
бітрейт: 640 кб/с

Аудіо # 4:
мова: англійська
переклад: коментарі режисера Джеймса Кемерона, акторів та членів знімальної групи
кодек: 2.0
бітрейт: 224 кб/с

Субтитри # 1: (Forced) | на неперекладені епізоди
мова: українська
тип: програмні (м'які)
формат: *.srt

Субтитри # 2: (Full)
мова: українська
тип: програмні (м'які)
формат: *.srt

Субтитри # 3: (Full)
мова: українська
тип: пререндерні
формат: *.pgs

Субтитри # 4: (SDH)
мова: англійська
тип: програмні (м'які)
формат: *.srt

Субтитри # 5: (SDH)
мова: англійська
тип: пререндерні
формат: *.pgs

Субтитри # 6: (Full) | на коментарі режисера Джеймса Кемерона, акторів та членів знімальної групи
мова: англійська
тип: пререндерні
формат: *.pgs

Збережено оригінальні розділи, як на Blu-ray.
Info
General
Unique ID : 155938424736821246173652813543848878367 (0x7550A5EE58960075F44A887FFB01211F)
Complete name : N:\+Alien Movie Collection\Aliens (Special Edition) (1986) Remux 1080p UkrEng Sub UkrEng [Hurtom].
Format :
Format version : Version 4
File size : 34.4 GiB
Duration : 2 h 34 min
Overall bit rate mode : Variable
Overall bit rate : 31.9 Mb/s
Movie name : Чужі (Спеціальне видання) / Aliens (Special Edition) (1986) Remux 1080p Ukr/Eng | Sub Ukr/Eng [Hurtom]
Encoded date : UTC 2019-10-21 22:07:28
Writing application : v25.0.0 ('Prog Noir') 64-bit
Writing library : libebml v1.3.6 + v1.4.9
Cover : Yes
Attachments : cover.jpg

Video
ID : 1
Format : AVC
Format/Info : Advanced Video Codec
Format profile : [email protected]
Format settings : CABAC / 4 Ref Frames
Format settings, CABAC : Yes
Format settings, Reference fra : 4 frames
Codec ID : V_MPEG4/ISO/AVC
Duration : 2 h 34 min
Bit rate mode : Variable
Bit rate : 26.6 Mb/s
Maximum bit rate : 36.6 Mb/s
Width : 1 920 pixels
Height : 1 080 pixels
Display aspect ratio : 16:9
Frame rate mode : Constant
Frame rate : 23.976 (24000/1001) FPS
Color space : YUV
Chroma subsampling : 4:2:0
Bit depth : 8 bits
Scan type : Progressive
Bits/(Pixel*Frame) : 0.535
Stream size : 28.7 GiB (83%)
Title : Aliens (Special Edition) (1986) Remux 1080p Ukr/Eng | Sub Ukr/Eng [Hurtom]
Language : Ukrainian
Default : Yes
Forced : Yes
Color range : Limited
Color primaries : BT.709
Transfer characteristics : BT.709
Matrix coefficients : BT.709

Audio #1
ID : 2
Format : AC-3
Format/Info : Audio Coding 3
Commercial name : Dolby Digital
Codec ID : A_AC3
Duration : 2 h 34 min
Bit rate mode : Constant
Bit rate : 384 kb/s
Channel(s) : 6 channels
Channel layout : L R C LFE Ls Rs
Sampling rate : 48.0 kHz
Frame rate : 31.250 FPS (1536 SPF)
Bit depth : 16 bits
Compression mode : Lossy
Delay relative to video : 5 s 43 ms
Stream size : 424 MiB (1%)
Title : DVO [1+1] 5.1
Language : Ukrainian
Service kind : Complete Main
Default : Yes
Forced : Yes

Audio #2
ID : 3
Format : XLL
Format/Info : Digital Theater Systems
Commercial name : -HD Master Audio
Codec ID : A_DTS
Duration : 2 h 34 min
Bit rate mode : Variable
Bit rate : 3 981 kb/s
Channel(s) : 6 channels
Channel layout : C L R Ls Rs LFE
Sampling rate : 48.0 kHz
Frame rate : 93.750 FPS (512 SPF)
Bit depth : 24 bits
Compression mode : Lossless
Stream size : 4.30 GiB (12%)
Title : Original -HD MA 5.1
Language : English
Default : No
Forced : No

Audio #3
ID : 4
Format : AC-3
Format/Info : Audio Coding 3
Commercial name : Dolby Digital
Codec ID : A_AC3
Duration : 2 h 34 min
Bit rate mode : Constant
Bit rate : 640 kb/s
Channel(s) : 6 channels
Channel layout : L R C LFE Ls Rs
Sampling rate : 48.0 kHz
Frame rate : 31.250 FPS (1536 SPF)
Bit depth : 16 bits
Compression mode : Lossy
Stream size : 707 MiB (2%)
Title : Original 5.1
Language : English
Service kind : Complete Main
Default : No
Forced : No

Audio #4
ID : 5
Format : AC-3
Format/Info : Audio Coding 3
Commercial name : Dolby Digital
Codec ID : A_AC3
Duration : 2 h 34 min
Bit rate mode : Constant
Bit rate : 224 kb/s
Channel(s) : 2 channels
Channel layout : L R
Sampling rate : 48.0 kHz
Frame rate : 31.250 FPS (1536 SPF)
Bit depth : 16 bits
Compression mode : Lossy
Stream size : 247 MiB (1%)
Title : Original 2.0 | Commentary by director James Cameron, cast and crew
Language : English
Service kind : Complete Main
Default : No
Forced : No

Text #1
ID : 6
Format : UTF-8
Codec ID : S_TEXT/UTF8
Codec ID/Info : UTF-8 Plain Text
Duration : 1 h 58 min
Bit rate : 10 b/s
Count of elements : 180
Stream size : 9.48 KiB (0%)
Title : Ukr (Forced)
Language : Ukrainian
Default : Yes
Forced : Yes

Text #2
ID : 7
Format : UTF-8
Codec ID : S_TEXT/UTF8
Codec ID/Info : UTF-8 Plain Text
Duration : 2 h 29 min
Bit rate : 68 b/s
Count of elements : 1516
Stream size : 74.5 KiB (0%)
Title : Ukr (Full) SRT
Language : Ukrainian
Default : No
Forced : No

Text #3
ID : 8
Format : PGS
Muxing mode : zlib
Codec ID : S_HDMV/PGS
Codec ID/Info : Picture based subtitle format used on BDs/HD-DVDs
Duration : 2 h 29 min
Bit rate : 21.7 kb/s
Count of elements : 2289
Stream size : 23.2 MiB (0%)
Title : Ukr (Full) PGS
Language : Ukrainian
Default : No
Forced : No

Text #4
ID : 9
Format : UTF-8
Codec ID : S_TEXT/UTF8
Codec ID/Info : UTF-8 Plain Text
Duration : 2 h 31 min
Bit rate : 49 b/s
Count of elements : 1596
Stream size : 55.5 KiB (0%)
Title : Eng (SDH) SRT
Language : English
Default : No
Forced : No

Text #5
ID : 10
Format : PGS
Muxing mode : zlib
Codec ID : S_HDMV/PGS
Codec ID/Info : Picture based subtitle format used on BDs/HD-DVDs
Duration : 2 h 31 min
Bit rate : 51.9 kb/s
Count of elements : 3196
Stream size : 56.3 MiB (0%)
Title : Eng (SDH) PGS
Language : English
Default : No
Forced : No

Text #6
ID : 11
Format : PGS
Muxing mode : zlib
Codec ID : S_HDMV/PGS
Codec ID/Info : Picture based subtitle format used on BDs/HD-DVDs
Duration : 2 h 34 min
Bit rate : 62.9 kb/s
Count of elements : 4240
Stream size : 69.5 MiB (0%)
Title : Eng (Full) | Commentary by director James Cameron, cast and crew
Language : English
Default : No
Forced : No

Menu
00:00:00.000 : en:Main Titles
00:02:06.750 : en:Human Salvage
00:05:15.731 : en:57 Years
00:08:34.346 : en:The Park
00:10:52.108 : en:Inquest
00:15:13.619 : en:Lv-426
00:17:25.001 : en:The Big Score
00:20:54.126 : en:Home Alone
00:25:02.500 : en:Ripley's Decision
00:25:57.471 : en:Sulaco
00:30:03.718 : en:The Android
00:32:53.887 : en:Briefing
00:35:56.862 : en:The Loader
00:38:03.530 : en:Express Elevator to Hell
00:45:40.070 : en:Arrival
00:52:28.518 : en:Memories
00:54:48.076 : en:Lab Specimens
00:56:09.114 : en:Movement
01:00:11.106 : en:Newt
01:04:47.506 : en:Rescue Mission
01:10:10.997 : en:Cocoons
01:12:51.992 : en:The Battle
01:16:22.868 : en:Ripley's Rescue
01:21:22.252 : en:Altercation
01:23:17.198 : en:Stranded
01:26:21.134 : en:Barricade
01:31:22.059 : en:A Mother's Love
01:34:37.421 : en:Speculation
01:37:25.255 : en:The Tunnel
01:38:40.706 : en:Bad News
01:41:23.243 : en:The Corridor
01:45:03.462 : en:Dreamland
01:47:15.552 : en:Not a Dream
01:51:41.402 : en:For a Percentage
01:52:58.604 : en:"Game Time"
02:02:10.363 : en:Little Girl Lost
02:05:54.046 : en:Ripley's Promise
02:07:41.986 : en:Reluctant Soldier
02:13:15.528 : en:The Nest
02:17:29.615 : en:The Final Countdown
02:22:24.700 : en:It's Over
02:23:16.710 : en:Final Confrontation
02:30:16.004 : en:Dreams
02:31:36.460 : en:End Titles
Скріншоти
Джерело: &
Висловлюю подяки: запис з ТБ - п. olgaya, п. Romario_O, п. robotron005, п. Merdiff, синхронізація - п. _oles, українізовані постери - п. thefir, п. Gelios
Особиста оцінка: 10 - без зайвих вагань рекомендую всім!


Золотий реліз (завантажене не впливає на рейтинг)
 Трекер:    Зареєстрований   

Завантажити / скачати фільм українською



відео для новачків



 Зареєстрований:   2019-10-22 02:23
 Розмір:   34.42 GB 
 Оцінка фільму:   10/10 (Голосів: 21)
   
[email protected] 
VIP


З нами з: 25.03.17
Востаннє: 27.09.20
Повідомлень: 552

2019-10-29 23:19  
Класний фільм
Ваш часовий пояс: GMT + 2 Години

Нова тема   Відповісти