Історія іграшок 4 / Toy Story 4 (2019) Remux 1080p Ukr/Eng | Sub Eng

Нові коментарі

Нова тема   Відповісти
Автор Повідомлення
Anonymous 







2019-10-21 01:00  
Історія іграшок 4 / Toy Story 4 (2019) Remux 1080p Ukr/Eng | Sub Eng

Історія іграшок 4 / Toy Story 4 (2019) Remux 1080p Ukr/Eng | Sub Eng
Альтернативні постери

Історія іграшок 4 / Toy Story 4 (2019) Remux 1080p Ukr/Eng | Sub Eng











Жанр: анімація, сімейний, пригодницький, комедія, фентезі
Країна: США



Кінокомпанія: Walt Disney Pictures, Pixar Animation Studios
Режисер: Джош Кулі / Josh Cooley
Ролі озвучують: Том Генкс, Тім Аллен, Енні Поттс, Тоні Хейл, Кіген-Майкл Кі, Мадлен МакГроу, Крістіна Хендрікс, Джордан Піл, Кіану Рівз, Еллі Матсумура

Сюжет:
Найвідоміші аніматори світу, оскароносні Disney/Pixar запрошують на зустріч з улюбленими героями! З переїздом у новий дім життя ковбоя Вуді і космічного рейнджера Базза перевертається з ніг на голову. Залишивши турботи, герої змушені об'єднатися, щоб вирушити у захопливу і небезпечну мандрівку, рівної якій ще не було у світі Іграшок!
Офіційні українські тизер та трейлер:

тизер:


трейлер:

Рейтинг MPAA: G - немає вікових обмежень
Вікова категорія: 6+
Тривалість: 01:40:03
Якість: Remux 1080p

Відео:
кодек:
розмір кадру: 1920х1080
бітрейт: 23,6 Мб/с

Аудіо # 1:
мова: українська
переклад: професійний дубльований | студія LeDoyen
кодек: 5.1
бітрейт: 640 кб/с

Аудіо # 2:
мова: українська
переклад: професійний дубльований | студія LeDoyen
кодек: 5.1
бітрейт: 1536 кб/с

Аудіо # 3:
мова: українська
переклад: професійний дубльований | студія LeDoyen
кодек: -HD MA 5.1
бітрейт: 3594 кб/с

Аудіо # 4:
мова: англійська
переклад: оригінал
кодек: 5.1
бітрейт: 448 кб/с

Аудіо # 5:
мова: англійська
переклад: оригінал
кодек: -HD Master 7.1
бітрейт: 4160 кб/с

Субтитри # 1:
мова: українська (forced, на написи)
тип: програмні (м'які)
формат: *.srt
примітка 1: переклад Ash61

Субтитри # 2-3: (Full, SDH)
мова: англійська
тип: програмні (м'які)
формат: *.srt

Збережено оригінальні розділи, як на Blu-ray.
Info
Код:
General
Complete name                            : Toy Story 4 (2019) Blu-ray Remux 1080p [ukr,eng] [ViDeO_Hurtom].
Format                                   :
Format version                           : Version 4
File size                                : 23.7 GiB
Duration                                 : 1 h 40 min
Overall bit rate mode                    : Variable
Overall bit rate                         : 34.0 Mb/s
Movie name                               : Toy Story 4 (2019) Blu-ray Remux 1080p [ukr,eng] [ViDeO_Hurtom]
Encoded date                             : UTC 2019-10-20 22:38:01
Writing application                      : v30.1.0 ('Forever And More') 64-bit
Writing library                          : libebml v1.3.6 + v1.4.9
Cover                                    : Yes
Attachments                              : cover.jpg

Video
ID                                       : 1
Format                                   : AVC
Format/Info                              : Advanced Video Codec
Format profile                           : [email protected]
Format settings                          : CABAC / 4 Ref Frames
Format settings, CABAC                   : Yes
Format settings, RefFrames               : 4 frames
Format settings, GOP                     : M=1, N=12
Codec ID                                 : V_MPEG4/ISO/AVC
Duration                                 : 1 h 40 min
Bit rate mode                            : Variable
Bit rate                                 : 23.6 Mb/s
Maximum bit rate                         : 29.6 Mb/s
Width                                    : 1 920 pixels
Height                                   : 1 080 pixels
Display aspect ratio                     : 16:9
Frame rate mode                          : Constant
Frame rate                               : 23.976 (24000/1001) FPS
Color space                              : YUV
Chroma subsampling                       : 4:2:0
Bit depth                                : 8 bits
Scan type                                : Progressive
Bits/(Pixel*Frame)                       : 0.475
Stream size                              : 16.5 GiB (69%)
Language                                 : English
Default                                  : Yes
Forced                                   : No

Audio #1
ID                                       : 2
Format                                   : AC-3
Format/Info                              : Audio Coding 3
Commercial name                          : Dolby Digital
Codec ID                                 : A_AC3
Duration                                 : 1 h 40 min
Bit rate mode                            : Constant
Bit rate                                 : 640 kb/s
Channel(s)                               : 6 channels
Channel layout                           : L R C LFE Ls Rs
Sampling rate                            : 48.0 kHz
Frame rate                               : 31.250 FPS (1536 SPF)
Bit depth                                : 16 bits
Compression mode                         : Lossy
Stream size                              : 458 MiB (2%)
Title                                    : , 6 ch, 640 Кбт/с
Language                                 : Ukrainian
Service kind                             : Complete Main
Default                                  : No
Forced                                   : No

Audio #2
ID                                       : 3
Format                                   :
Format/Info                              : Digital Theater Systems
Codec ID                                 : A_DTS
Duration                                 : 1 h 40 min
Bit rate mode                            : Constant
Bit rate                                 : 1 509 kb/s
Channel(s)                               : 6 channels
Channel layout                           : C L R Ls Rs LFE
Sampling rate                            : 48.0 kHz
Frame rate                               : 93.750 FPS (512 SPF)
Bit depth                                : 24 bits
Compression mode                         : Lossy
Stream size                              : 1.05 GiB (4%)
Title                                    : , 6 ch, 1536 Кбт/с
Language                                 : Ukrainian
Default                                  : No
Forced                                   : No

Audio #3
ID                                       : 4
Format                                   : XLL
Format/Info                              : Digital Theater Systems
Commercial name                          : -HD Master Audio
Codec ID                                 : A_DTS
Duration                                 : 1 h 40 min
Bit rate mode                            : Variable
Bit rate                                 : 3 594 kb/s
Channel(s)                               : 6 channels
Channel layout                           : C L R Ls Rs LFE
Sampling rate                            : 48.0 kHz
Frame rate                               : 93.750 FPS (512 SPF)
Bit depth                                : 24 bits
Compression mode                         : Lossless
Stream size                              : 2.51 GiB (11%)
Title                                    : -HD MA, 8 ch, 3594 Кбт/с
Language                                 : Ukrainian
Default                                  : Yes
Forced                                   : No

Audio #4
ID                                       : 5
Format                                   : AC-3
Format/Info                              : Audio Coding 3
Commercial name                          : Dolby Digital
Codec ID                                 : A_AC3
Duration                                 : 1 h 40 min
Bit rate mode                            : Constant
Bit rate                                 : 448 kb/s
Channel(s)                               : 6 channels
Channel layout                           : L R C LFE Ls Rs
Sampling rate                            : 48.0 kHz
Frame rate                               : 31.250 FPS (1536 SPF)
Bit depth                                : 16 bits
Compression mode                         : Lossy
Stream size                              : 321 MiB (1%)
Title                                    : , 6 ch, 448 Кбт/с
Language                                 : English
Service kind                             : Complete Main
Default                                  : No
Forced                                   : No

Audio #5
ID                                       : 6
Format                                   : XLL
Format/Info                              : Digital Theater Systems
Commercial name                          : -HD Master Audio
Codec ID                                 : A_DTS
Duration                                 : 1 h 40 min
Bit rate mode                            : Variable
Bit rate                                 : 4 160 kb/s
Channel(s)                               : 8 channels
Channel layout                           : C L R LFE Lb Rb Lss Rss
Sampling rate                            : 48.0 kHz
Frame rate                               : 93.750 FPS (512 SPF)
Bit depth                                : 24 bits
Compression mode                         : Lossless
Stream size                              : 2.91 GiB (12%)
Title                                    : -HD MA, 8 ch, 4160 Кбт/с
Language                                 : English
Default                                  : No
Forced                                   : No

Text #1
ID                                       : 7
Format                                   : UTF-8
Codec ID                                 : S_TEXT/UTF8
Codec ID/Info                            : UTF-8 Plain Text
Duration                                 : 1 h 38 min
Bit rate                                 : 1 b/s
Count of elements                        : 19
Stream size                              : 896 Bytes (0%)
Title                                    : Forced
Language                                 : Ukrainian
Default                                  : Yes
Forced                                   : No

Text #2
ID                                       : 8
Format                                   : UTF-8
Codec ID                                 : S_TEXT/UTF8
Codec ID/Info                            : UTF-8 Plain Text
Duration                                 : 1 h 39 min
Bit rate                                 : 63 b/s
Count of elements                        : 1806
Stream size                              : 46.3 KiB (0%)
Title                                    : Full
Language                                 : English
Default                                  : No
Forced                                   : No

Text #3
ID                                       : 9
Format                                   : UTF-8
Codec ID                                 : S_TEXT/UTF8
Codec ID/Info                            : UTF-8 Plain Text
Duration                                 : 1 h 39 min
Bit rate                                 : 76 b/s
Count of elements                        : 2062
Stream size                              : 55.5 KiB (0%)
Title                                    : SDH
Language                                 : English
Default                                  : No
Forced                                   : No

Menu
00:00:00.000                             : :Chapter 01
00:05:39.798                             : :Chapter 02
00:11:21.097                             : :Chapter 03
00:15:06.239                             : :Chapter 04
00:19:01.140                             : :Chapter 05
00:20:52.042                             : :Chapter 06
00:22:43.821                             : :Chapter 07
00:26:11.111                             : :Chapter 08
00:27:47.082                             : :Chapter 09
00:32:11.846                             : :Chapter 10
00:36:17.425                             : :Chapter 11
00:40:34.640                             : :Chapter 12
00:42:56.699                             : :Chapter 13
00:44:26.872                             : :Chapter 14
00:46:39.380                             : :Chapter 15
00:48:06.175                             : :Chapter 16
00:49:18.664                             : :Chapter 17
00:52:25.809                             : :Chapter 18
00:53:58.568                             : :Chapter 19
00:54:34.479                             : :Chapter 20
00:59:06.960                             : :Chapter 21
01:01:30.645                             : :Chapter 22
01:04:40.752                             : :Chapter 23
01:07:25.249                             : :Chapter 24
01:09:31.042                             : :Chapter 25
01:10:54.834                             : :Chapter 26
01:12:05.154                             : :Chapter 27
01:15:03.040                             : :Chapter 28
01:17:29.770                             : :Chapter 29
01:18:04.846                             : :Chapter 30
01:19:21.840                             : :Chapter 31
01:19:48.116                             : :Chapter 32
01:22:24.940                             : :Chapter 33
01:29:00.293                             : :Chapter 34
Скріншоти


Джерело:
Подяка пану Hanway за синхронізацію звуку.
Особиста оцінка: 0 - не дивився



Золотий реліз (завантажене не впливає на рейтинг)
 Трекер:    Зареєстрований   

Завантажити / скачати мультфільм українською



відео для новачків



 Зареєстрований:   2019-10-21 01:00
 Розмір:   23.73 GB 
 Оцінка мультфільму:   9.6/10 (Голосів: 14)
   
Shaska 
Новенький


З нами з: 06.03.19
Востаннє: 27.02.20
Повідомлень: 1

2019-11-03 12:38  
А чому немає українських титріву кінці ?
Білий_Вовк 
Забанено
Забанено


З нами з: 22.09.19
Востаннє: 15.01.20
Повідомлень: 24

2019-11-04 10:05  
Shaska написано:
А чому немає українських титріву кінці ?

https://toloka.to/t90047-180#1131293

The Gunslinger 
Свій


З нами з: 08.04.12
Востаннє: 27.02.20
Повідомлень: 102

2020-01-12 21:46  
Дуже вдале продовження. Для мене це кращий сиквел року.
Ваш часовий пояс: GMT + 2 Години

Нова тема   Відповісти