Прогулянка серед могил / A Walk Among the Tombstones (2014) Remux 1080p Ukr(MIC)/Eng | Sub Eng

Нові коментарі

Нова тема   Відповісти
Автор Повідомлення
MakRA 
VIP


З нами з: 11.11.18
Востаннє: 23.09.20
Повідомлень: 1119

2019-10-21 01:01  
Прогулянка серед могил / A Walk Among the Tombstones (2014) Remux 1080p Ukr(MIC)/Eng | Sub Eng


Український постер:

Жанр: екшн, кримінальний, драма
Країна: США



Кінокомпанія: 1984 Private Defense Contractors, Cross Creek Pictures, Da Vinci Media Ventures, Double Feature Films, Exclusive Media Group, Free State Pictures, Jersey Films, Manu Propria Entertainment, Travelling Picture Show Company
Режисер: Скотт Френк [Scott Frank]
Актори: Ліам Нісон [Liam Neeson], Моріс Конт [Maurice Compte], Патрік МакДейд [Patrick McDade], Лучіано Акуна мол. [Luciano Acuna Jr.], Ганс Марреро [Hans Marrero], Лаура Бірн [Laura Birn], Девід Харбор [David Harbour], Адам Девід Томпсон [Adam David Thompson], Кім Розен [Kim Rosen], Ден Стівенс [Dan Stevens]

Сюжет:
Меттью Скаддер, колишній коп, якого звільнили з поліції за алкоголізм, а тепер приватний детектив без ліцензії, погоджується допомогти наркобарону в пошуках його викраденої дружини, тіло якої злочинці починають повертати частинами ...

Екранізація однойменного роману Лоуренса Блока.



Тривалість: 01:54:05
Якість: Remux 1080p
Відео:
кодек: H.263
розмір кадру: 1920 х 1080
бітрейт: 31,5 Mб/с

Аудіо # 1:
мова: українська
переклад: професійний дубльований | MIC
кодек: 2.0
бітрейт: 192 кб/с

Аудіо # 2:
мова: англійська
переклад: оригінал
кодек: -HD 5.1
бітрейт: 3541 кб/с

Аудіо # 3:
мова: англійська
переклад: оригінал
кодек: 5.1
бітрейт: 448 кб/с

Субтитри # 1: (Full)
мова: англійська
тип: програмні (м'які)
формат: *.srt

Субтитри # 2: (SDH)
мова: англійська
тип: програмні (м'які)
формат: *.srt

Субтитри # 3: (SDH)
мова: англійська
тип: пререндерні
формат: *.pgs

Збережено оригінальні розділи, як на Blu-ray.
Info
General
Unique ID : 262528623028631442556398945562650268627 (0xC5812C7357363E811214DD2506ECD3D3)
Complete name : N:\+Фільмографії- Ліам Нісон [Liam Neeson]\A Walk Among the Tombstones (2014) Remux 1080p Ukr(MIC)Eng Sub Eng [Hurtom].
Format :
Format version : Version 4
File size : 28.5 GiB
Duration : 1 h 54 min
Overall bit rate mode : Variable
Overall bit rate : 35.7 Mb/s
Movie name : Прогулянка серед могил / A Walk Among the Tombstones (2014) Remux 1080p Ukr(MIC)/Eng | Sub Eng [Hurtom]
Encoded date : UTC 2019-10-20 21:24:39
Writing application : v25.0.0 ('Prog Noir') 64-bit
Writing library : libebml v1.3.6 + v1.4.9 / XviD4PSP 7.0 / 55.48.100
Cover : Yes
Attachments : cover.jpg
DATE : -1

Video
ID : 1
Format : AVC
Format/Info : Advanced Video Codec
Format profile : [email protected]
Format settings : CABAC / 4 Ref Frames
Format settings, CABAC : Yes
Format settings, Reference fra : 4 frames
Codec ID : V_MPEG4/ISO/AVC
Duration : 1 h 54 min
Bit rate mode : Variable
Bit rate : 31.5 Mb/s
Maximum bit rate : 35.0 Mb/s
Width : 1 920 pixels
Height : 1 080 pixels
Display aspect ratio : 16:9
Frame rate mode : Constant
Frame rate : 23.976 (24000/1001) FPS
Color space : YUV
Chroma subsampling : 4:2:0
Bit depth : 8 bits
Scan type : Progressive
Bits/(Pixel*Frame) : 0.634
Stream size : 25.1 GiB (88%)
Title : A Walk Among the Tombstones (2014) Remux 1080p Ukr(MIC)/Eng | Sub Eng [Hurtom]
Language : Ukrainian
Default : Yes
Forced : Yes

Audio #1
ID : 2
Format : AC-3
Format/Info : Audio Coding 3
Commercial name : Dolby Digital
Codec ID : A_AC3
Duration : 1 h 54 min
Bit rate mode : Constant
Bit rate : 192 kb/s
Channel(s) : 2 channels
Channel layout : L R
Sampling rate : 48.0 kHz
Frame rate : 31.250 FPS (1536 SPF)
Bit depth : 16 bits
Compression mode : Lossy
Stream size : 157 MiB (1%)
Title : DUB (MIC) 2.0
Language : Ukrainian
Service kind : Complete Main
Default : Yes
Forced : Yes

Audio #2
ID : 3
Format : XLL
Format/Info : Digital Theater Systems
Commercial name : -HD Master Audio
Codec ID : A_DTS
Duration : 1 h 54 min
Bit rate mode : Variable
Bit rate : 3 541 kb/s
Channel(s) : 6 channels
Channel layout : C L R Ls Rs LFE
Sampling rate : 48.0 kHz
Frame rate : 93.750 FPS (512 SPF)
Bit depth : 24 bits
Compression mode : Lossless
Stream size : 2.82 GiB (10%)
Title : Original -HD MA 5.1
Language : English
Default : No
Forced : No

Audio #3
ID : 4
Format : AC-3
Format/Info : Audio Coding 3
Commercial name : Dolby Digital
Codec ID : A_AC3
Duration : 1 h 54 min
Bit rate mode : Constant
Bit rate : 448 kb/s
Channel(s) : 6 channels
Channel layout : L R C LFE Ls Rs
Sampling rate : 48.0 kHz
Frame rate : 31.250 FPS (1536 SPF)
Bit depth : 16 bits
Compression mode : Lossy
Stream size : 366 MiB (1%)
Title : Original 5.1
Language : English
Service kind : Complete Main
Default : No
Forced : No

Text #1
ID : 5
Format : UTF-8
Codec ID : S_TEXT/UTF8
Codec ID/Info : UTF-8 Plain Text
Duration : 1 h 46 min
Bit rate : 59 b/s
Count of elements : 1488
Stream size : 46.2 KiB (0%)
Title : Eng (Full)
Language : English
Default : No
Forced : No

Text #2
ID : 6
Format : UTF-8
Codec ID : S_TEXT/UTF8
Codec ID/Info : UTF-8 Plain Text
Duration : 1 h 46 min
Bit rate : 62 b/s
Count of elements : 1605
Stream size : 49.2 KiB (0%)
Title : Eng (SDH) SRT
Language : English
Default : No
Forced : No

Text #3
ID : 7
Format : PGS
Muxing mode : zlib
Codec ID : S_HDMV/PGS
Codec ID/Info : Picture based subtitle format used on BDs/HD-DVDs
Duration : 1 h 46 min
Bit rate : 42.9 kb/s
Count of elements : 3216
Stream size : 32.8 MiB (0%)
Title : Eng (SDH) PGS
Language : English
Default : No
Forced : No

Menu
00:00:00.000 : :00:00:00.000
00:06:05.490 : :00:06:05.490
00:12:23.576 : :00:12:23.576
00:19:49.730 : :00:19:49.730
00:25:04.378 : :00:25:04.378
00:31:19.377 : :00:31:19.377
00:37:34.127 : :00:37:34.127
00:42:39.682 : :00:42:39.682
00:48:59.061 : :00:48:59.061
00:55:30.452 : :00:55:30.452
01:02:32.540 : :01:02:32.540
01:07:45.019 : :01:07:45.019
01:12:31.305 : :01:12:31.305
01:16:49.980 : :01:16:49.980
01:24:01.036 : :01:24:01.036
01:28:31.056 : :01:28:31.056
01:35:01.321 : :01:35:01.321
01:39:32.049 : :01:39:32.049
01:44:18.711 : :01:44:18.711
01:50:10.729 : :01:50:10.729
Скріншоти
Джерело: &
За надану доріжку подяка п. patriot2305
Особиста оцінка: 10 - без зайвих вагань рекомендую всім!


Золотий реліз (завантажене не впливає на рейтинг)
 Трекер:    Зареєстрований   

Завантажити / скачати фільм українською



відео для новачків



 Зареєстрований:   2019-10-21 01:01
 Розмір:   28.48 GB 
 Оцінка фільму:   9.7/10 (Голосів: 9)
   
Ваш часовий пояс: GMT + 2 Години

Нова тема   Відповісти