Вихідний день Ферріса Бюллера / Ferris Bueller's day off (1986) [Open Matte] 1080p Ukr/Eng | Sub Eng

Нові коментарі

Нова тема   Відповісти
Автор Повідомлення
Anonymous 







2019-10-21 00:15  
Вихідний день Ферріса Бюллера / Ferris Bueller's day off (1986) [Open Matte] 1080p Ukr/Eng | Sub Eng

Вихідний день Ферріса Бюллера / Ferris Bueller's day off (1986) [Open Matte] 1080p Ukr/Eng | Sub Eng

Жанр: комедія
Країна: США



Кінокомпанія: Paramount
Режисер: Джон Г'юз / John Hughes
Актори: Метью Бродерік / Matthew Broderick, Алан Рак / Alan Ruck, Мiа Сара / Mia Sara, Джеффрі Джонс / Jeffrey Jones, Дженніфер Ґрей / Jennifer Grey, Сінді Пікетт / Cindy Pickett, Лаймен Ворд / Lyman Ward, Еді МакКлурґ / Edie McClurg, Чарлі Шин / Charlie Sheen, Бен Стайн / Ben Stein та інші

Сюжет:
Ферріс Бьюллер незвичайний хлопчина, наділений неймовірною витримкою та спокоєм. Він просто взірець для всіх, хто надто серйозно сприймає життя. Чудового весняного дня напередодні випускних іспитів, його потяг у черговий раз прогуляти школу пересилює, та разом зі своєю подругою та найкращим другом, він вирушає у подорож через Чикаго, щоб помилуватися природою, відвідати музеї... та просто насолодитися вільним днем.


Тривалість: 01:43:10
Якість: 1080p [Amazon, Open Matte]
Порівняння наповненості кадру Blu-Ray vs Open Matte







Відео:
кодек:
розмір кадру: 1920 x 1080
бітрейт: 10 000 кб/с

Аудіо # 1:
мова: українська
переклад: багатоголосий закадровий
кодек: 5.1
бітрейт: 1510 кб/с
примітка: доріжка отримана накладанням чистих голосів на центр оригіналу (HDClub)

Аудіо # 2:
мова: англійська
переклад: оригінал
кодек: 5.1
бітрейт: 1511 кб/с

Аудіо # 3:
мова: англійська
переклад: оригінал
кодек: AC-3 2.0
бітрейт: 192 кб/с

Субтитри # 1: (Forced)
мова: українська
тип: програмні (м'які)
формат: *.srt

Субтитри # 2-3: (Full, SDH)
мова: англійська
тип: програмні (м'які)
формат: *.srt


Info
Код:
General
Unique ID                                : 65961061337181116960427070202617784596 (0x319FA368E4814E9BD893AA0E3DAFE914)
Complete name                            : Ferris Bueller's Day Off (1986) [Open Matte] 1080p [UKR_ENG] [Hurtom].
Format                                   :
Format version                           : Version 4
File size                                : 9.38 GiB
Duration                                 : 1 h 43 min
Overall bit rate                         : 13.0 Mb/s
Movie name                               : Вихідний день Ферріса Бюллера / Ferris Bueller's day off (1986)
Encoded date                             : UTC 2019-10-20 14:23:08
Writing application                      : v20.0.0 ('I Am The Sun') 64-bit
Writing library                          : libebml v1.3.5 + v1.4.8
Cover                                    : Yes
Attachments                              : Cover.jpg

Video
ID                                       : 1
Format                                   : AVC
Format/Info                              : Advanced Video Codec
Format profile                           : [email protected]
Format settings                          : CABAC / 4 Ref Frames
Format settings, CABAC                   : Yes
Format settings, Reference frames        : 4 frames
Codec ID                                 : V_MPEG4/ISO/AVC
Duration                                 : 1 h 43 min
Bit rate mode                            : Constant
Bit rate                                 : 10 000 kb/s
Width                                    : 1 920 pixels
Height                                   : 1 080 pixels
Display aspect ratio                     : 16:9
Frame rate mode                          : Constant
Frame rate                               : 23.976 (24000/1001) FPS
Color space                              : YUV
Chroma subsampling                       : 4:2:0
Bit depth                                : 8 bits
Scan type                                : Progressive
Bits/(Pixel*Frame)                       : 0.201
Stream size                              : 7.06 GiB (75%)
Title                                    : Вихідний день Ферріса Бюллера / Ferris Bueller's day off (1986)
Default                                  : Yes
Forced                                   : No
Color range                              : Limited
Color primaries                          : BT.709
Transfer characteristics                 : BT.709
Matrix coefficients                      : BT.709

Audio #1
ID                                       : 2
Format                                   :
Format/Info                              : Digital Theater Systems
Codec ID                                 : A_DTS
Duration                                 : 1 h 43 min
Bit rate mode                            : Constant
Bit rate                                 : 1 510 kb/s
Channel(s)                               : 6 channels
Channel layout                           : C L R Ls Rs LFE
Sampling rate                            : 48.0 kHz
Frame rate                               : 93.750 FPS (512 SPF)
Bit depth                                : 24 bits
Compression mode                         : Lossy
Stream size                              : 1.09 GiB (12%)
Title                                    : / 5.1 Ch / 1509 kbps / БЗ / Novy Kanal
Language                                 : Ukrainian
Default                                  : Yes
Forced                                   : Yes

Audio #2
ID                                       : 3
Format                                   :
Format/Info                              : Digital Theater Systems
Codec ID                                 : A_DTS
Duration                                 : 1 h 43 min
Bit rate mode                            : Constant
Bit rate                                 : 1 510 kb/s
Channel(s)                               : 6 channels
Channel layout                           : C L R Ls Rs LFE
Sampling rate                            : 48.0 kHz
Frame rate                               : 93.750 FPS (512 SPF)
Bit depth                                : 24 bits
Compression mode                         : Lossy
Stream size                              : 1.09 GiB (12%)
Title                                    : / 5.1 Ch / 1509 kbps / Original
Language                                 : English
Default                                  : No
Forced                                   : No

Audio #3
ID                                       : 4
Format                                   : AC-3
Format/Info                              : Audio Coding 3
Commercial name                          : Dolby Digital
Codec ID                                 : A_AC3
Duration                                 : 1 h 42 min
Bit rate mode                            : Constant
Bit rate                                 : 192 kb/s
Channel(s)                               : 2 channels
Channel layout                           : L R
Sampling rate                            : 48.0 kHz
Frame rate                               : 31.250 FPS (1536 SPF)
Bit depth                                : 16 bits
Compression mode                         : Lossy
Stream size                              : 141 MiB (1%)
Title                                    : / 2.0 Ch / 192 kbps / Original / Commentary
Language                                 : English
Service kind                             : Complete Main
Default                                  : No
Forced                                   : No

Text #1
ID                                       : 5
Format                                   : UTF-8
Codec ID                                 : S_TEXT/UTF8
Codec ID/Info                            : UTF-8 Plain Text
Duration                                 : 1 h 41 min
Bit rate                                 : 0 b/s
Count of elements                        : 17
Stream size                              : 735 Bytes (0%)
Title                                    : Forced
Language                                 : Ukrainian
Default                                  : Yes
Forced                                   : Yes

Text #2
ID                                       : 6
Format                                   : UTF-8
Codec ID                                 : S_TEXT/UTF8
Codec ID/Info                            : UTF-8 Plain Text
Duration                                 : 1 h 42 min
Bit rate                                 : 54 b/s
Count of elements                        : 1201
Stream size                              : 41.2 KiB (0%)
Title                                    : Full
Language                                 : English
Default                                  : No
Forced                                   : No

Text #3
ID                                       : 7
Format                                   : UTF-8
Codec ID                                 : S_TEXT/UTF8
Codec ID/Info                            : UTF-8 Plain Text
Duration                                 : 1 h 42 min
Bit rate                                 : 63 b/s
Count of elements                        : 1729
Stream size                              : 47.3 KiB (0%)
Title                                    : SDH
Language                                 : English
Default                                  : No
Forced                                   : No

Menu
00:00:00.000                             : en:Studio Logo
00:00:14.000                             : en:Ferris' Parents Find Him Sick
00:03:14.000                             : en:Ferris Talks about His Philosophy
00:05:47.000                             : en:The Teacher Calls Roll
00:06:35.000                             : en:Ferris Calls Cameron
00:08:14.000                             : en:Mrs. Bueller Gets a Call from Rooney
00:10:43.000                             : en:The Teacher Gives a Lecture
00:11:57.000                             : en:Ferris Dances in His Room
00:12:08.000                             : en:Ferris Talks with Classmates
00:13:58.000                             : en:They Think He's a Righteous Dude
00:15:17.000                             : en:Ferris Gets a Call from his Dad
00:16:44.000                             : en:Cameron Considers His Options
00:17:41.000                             : en:Sloane Receives Bad News
00:19:00.000                             : en:Rooney Gets a Call From Mr. Peterson
00:25:54.000                             : en:Ferris Tries to Borrow a Car
00:28:32.000                             : en:Sloane is Picked Up
00:31:28.000                             : en:The Group Drives to the City
00:32:27.000                             : en:Donations are Collected to Help Ferris
00:32:55.000                             : en:Rooney Contacts Mr. Peterson Again
00:34:13.000                             : en:The Ferarri is Dropped Off
00:36:46.000                             : en:Mrs. Bueller Checks in On Ferris
00:38:29.000                             : en:The Group Visits the Sears Tower
00:39:22.000                             : en:Cameron Gives His Opinion on Marriage
00:40:28.000                             : en:The Group Has Lunch
00:44:17.000                             : en:Jeanie Thinks about Ferris
00:44:42.000                             : en:Ferris Discusses Cameron's Family
00:46:02.000                             : en:Jeanie Visits the Main Office
00:46:39.000                             : en:The Group Avoids Being Caught
00:47:33.000                             : en:Rooney Searches for Ferris
00:49:55.000                             : en:The Group Goes to a Baseball Game
00:50:54.000                             : en:Rooney Visits Ferris
00:56:06.000                             : en:The Group Visits an Art Museum
00:58:00.000                             : en:The Group Avoids Getting Caught Again
01:00:10.000                             : en:Rooney Attempts to Escape
01:00:28.000                             : en:Ferris Surprises Sloane and Cameron
01:05:36.000                             : en:Jeanie Investigates Where Ferris Is
01:08:33.000                             : en:The Group Picks the Car Up
01:09:43.000                             : en:Jeanie Calls for Help
01:11:19.000                             : en:Cameron Reacts to the Situation
01:12:30.000                             : en:Jeanie Gets a Visitor
01:13:04.000                             : en:Ferris and Sloane Talk about Cameron
01:14:47.000                             : en:Cameron Plays a Prank on Ferris
01:16:50.000                             : en:Jeanie Meets Someone
01:19:44.000                             : en:Cameron Has a Breakthrough
01:27:37.000                             : en:Mrs. Bueller Picks up Jeanie
01:29:24.000                             : en:Ferris Races Home
01:36:27.000                             : en:Ferris' Parents Check on Ferris
01:38:59.000                             : en:Rooney Gets a Ride, End Credits
Світлини




Джерело: &
Особиста оцінка: 10 - без зайвих вагань рекомендую всім!


Срібний реліз (на рейтинг впливає 50% завантаженого)
 Трекер:    Зареєстрований   

Завантажити / скачати фільм українською



відео для новачків



 Зареєстрований:   2019-10-21 00:15
 Розмір:   9.38 GB 
 Оцінка фільму:   9/10 (Голосів: 11)
   
igor911 
Модератор відео


З нами з: 18.01.08
Востаннє: 28.05.20
Повідомлень: 14715

2019-10-22 09:13  
Додайте, будь ласка, порівняння наповнення кадру з блуреєм.
Anonymous 







2019-10-22 19:14  
igor911
Додано.

Ваш часовий пояс: GMT + 2 Години

Нова тема   Відповісти