Братик ведмедик / Brother Bear (2003) 1080p H.265 Ukr/Eng | Sub Eng

Нові коментарі

Нова тема   Відповісти
Автор Повідомлення
Anonymous 







2019-10-20 23:14  
Братик ведмедик / Brother Bear (2003) 1080p H.265 Ukr/Eng | Sub Eng

Братик ведмедик / Brother Bear (2003) 1080p H.265 Ukr/Eng | Sub Eng


Жанр: анімація, фентезі, пригодницький, сімейний
Країна: США
Кінокомпанія: Walt Disney Feature Animation, Walt Disney Pictures
Режисер: Аарон Блейз / Aaron Blaise, Роберт Вокер / Robert Walker
Ролі озвучують: Хоакін Фенікс / Joaquin Phoenix, Джеремі Суарез / Jeremy Suarez, Джейсон Райзе / Jason Raize, Рік Мораніс / Rick Moranis, Дейв Томас / Dave Thomas, Д.Б. Свіні / D.B. Sweeney, Джоан Копленд / Joan Copeland, Майкл Кларк Данкан / Michael Clarke Duncan, Гарольд Ґульд / Harold Gould, Пол Крісті / Paul Christie

Сюжет:
Давним-давно, коли по Землі ходили мамонти, а вічна крига сягала південних морів, жив мисливець Кенаї. Він був хоробрий і спритний, але якось прогнівав Великих Духів, убивши ведмедицю – священну тварину, чий тотем носив на шиї. Тоді духи пращурів, щоб покарати Кенаї, перетворили його на ведмедя. Тепер він не може розмовляти людською мовою, на нього полює його рідний брат, а ще до нього прибилося пустотливе ведмежа Кода, яке не хоче давати героєві спокою.

Але духи недарма звели Кенаї з Кодою – коли мисливець побачить у ньому рідну душу, він зможе знову стати людиною...

Тривалість: 01:25:04
Якість: (Власний Rip)

Відео:
кодек: H.265 (HEVC)
розмір кадру: 1920 x 816
бітрейт: 3 573 кб/с
бітова глибина: 10 біт

Увага! Перед завантаженням переконайтесь, що ваш пристрій відтворення (та/або ПЗ) підтримує H.265 (HEVC)

Аудіо # 1:
мова: українська
переклад: професійний дубльований | Невафільм Україна
кодек: AC-3 2.0
бітрейт: 192 кб/с

Аудіо # 2:
мова: англійська
переклад: оригінал
кодек: 5.1
бітрейт: 1510 кб/с

Аудіо # 3:
мова: англійська
переклад: оригінал | Rutt and Tuke's Commentary
кодек: 2.0
бітрейт: 122 кб/с

Субтитри # 1-3: (Full, SDH, Commentary)
мова: англійська
тип: програмні (м'які)
формат: *.srt


Info
Код:
General
Unique ID                                : 271037603198186246306282341988629787038 (0xCBE7F190202C26EA104278561EBCB19E)
Complete name                            : Brother Bear (2003) 1080p [UKR_ENG] [Hurtom].
Format                                   :
Format version                           : Version 4
File size                                : 3.21 GiB
Duration                                 : 1 h 25 min
Overall bit rate                         : 5 398 kb/s
Movie name                               : Братик ведмедик / Brother Bear (2003)
Encoded date                             : UTC 2019-10-20 20:44:42
Writing application                      : v35.0.0 ('All The Love In The World') 64-bit
Writing library                          : libebml v1.3.9 + v1.5.2
Cover                                    : Yes
Attachments                              : Cover

Video
ID                                       : 1
Format                                   : HEVC
Format/Info                              : High Efficiency Video Coding
Format profile                           : Main [email protected]@High
Codec ID                                 : V_MPEGH/ISO/HEVC
Duration                                 : 1 h 25 min
Bit rate                                 : 3 573 kb/s
Width                                    : 1 920 pixels
Height                                   : 816 pixels
Display aspect ratio                     : 2.35:1
Frame rate mode                          : Constant
Frame rate                               : 23.976 (24000/1001) FPS
Color space                              : YUV
Chroma subsampling                       : 4:2:0
Bit depth                                : 10 bits
Bits/(Pixel*Frame)                       : 0.095
Stream size                              : 2.12 GiB (66%)
Title                                    : Братик ведмедик / Brother Bear (2003)
Writing library                          : x265 3.1+11-de920e0a3183:[Windows][clang 8.0.0][64 bit] 10bit
Encoding settings                        : cpuid=1111039 / frame-threads=9 / numa-pools=8 / wpp / no-pmode / no-pme / no-psnr / no-ssim / log-level=3 / input-csp=1 / input-res=1920x816 / interlace=0 / total-frames=0 / level-idc=51 / high-tier=1 / uhd-bd=0 / ref=5 / allow-non-conformance / no-repeat-headers / annexb / no-aud / no-hrd / info / hash=0 / no-temporal-layers / open-gop / min-keyint=24 / keyint=240 / gop-lookahead=0 / bframes=8 / b-adapt=2 / b-pyramid / bframe-bias=0 / rc-lookahead=40 / lookahead-slices=5 / scenecut=40 / radl=0 / no-splice / no-intra-refresh / ctu=64 / min-cu-size=8 / rect / amp / max-tu-size=32 / tu-inter-depth=4 / tu-intra-depth=4 / limit-tu=0 / rdoq-level=2 / dynamic-rd=0.00 / no-ssim-rd / signhide / no-tskip / nr-intra=0 / nr-inter=0 / no-constrained-intra / no-strong-intra-smoothing / max-merge=3 / limit-refs=1 / no-limit-modes / me=3 / subme=7 / merange=57 / temporal-mvp / no-hme / weightp / weightb / no-analyze-src-pics / deblock=-3:-3 / no-sao / no-sao-non-deblock / rd=6 / no-early-skip / rskip / no-fast-intra / no-tskip-fast / no-cu-lossless / b-intra / no-splitrd-skip / rdpenalty=0 / psy-rd=2.00 / psy-rdoq=1.00 / no-rd-refine / no-lossless / cbqpoffs=0 / crqpoffs=0 / rc=crf / crf=18.0 / qcomp=0.65 / qpstep=4 / stats-write=0 / stats-read=0 / vbv-maxrate=50000 / vbv-bufsize=50000 / vbv-init=0.9 / crf-max=30.0 / crf-min=0.0 / ipratio=1.40 / pbratio=1.30 / aq-mode=1 / aq-strength=1.00 / cutree / zone-count=0 / no-strict-cbr / qg-size=32 / no-rc-grain / qpmax=69 / qpmin=0 / no-const-vbv / sar=1 / overscan=0 / videoformat=5 / range=0 / colorprim=2 / transfer=2 / colormatrix=2 / chromaloc=0 / display-window=0cll=0,0 / min-luma=0 / max-luma=1023 / log2-max-poc-lsb=8 / vui-timing-info / vui-hrd-info / slices=1 / no-opt-qp-pps / no-opt-ref-list-length-pps / no-multi-pass-opt-rps / scenecut-bias=0.05 / no-opt-cu-delta-qp / no-aq-motion / no-hdr / no-hdr-opt / no-dhdr10-opt / no-idr-recovery-sei / analysis-reuse-level=5 / scale-factor=0 / refine-intra=0 / refine-inter=0 / refine-mv=0 / refine-ctu-distortion=0 / no-limit-sao / ctu-info=0 / no-lowpass-dct / refine-analysis-type=0 / copy-pic=1 / max-ausize-factor=1.0 / no-dynamic-refine / no-single-sei / no-hevc-aq / no-svt / no-field / qp-adaptation-range=1.00
Default                                  : Yes
Forced                                   : No
Color range                              : Limited

Audio #1
ID                                       : 2
Format                                   : AC-3
Format/Info                              : Audio Coding 3
Commercial name                          : Dolby Digital
Codec ID                                 : A_AC3
Duration                                 : 1 h 25 min
Bit rate mode                            : Constant
Bit rate                                 : 192 kb/s
Channel(s)                               : 2 channels
Channel layout                           : L R
Sampling rate                            : 48.0 kHz
Frame rate                               : 31.250 FPS (1536 SPF)
Bit depth                                : 16 bits
Compression mode                         : Lossy
Stream size                              : 117 MiB (4%)
Title                                    : / 2.0 Ch / 192 kbps / ПД / Nevafilm Ukraine
Language                                 : Ukrainian
Service kind                             : Complete Main
Default                                  : Yes
Forced                                   : Yes

Audio #2
ID                                       : 3
Format                                   :
Format/Info                              : Digital Theater Systems
Codec ID                                 : A_DTS
Duration                                 : 1 h 25 min
Bit rate mode                            : Constant
Bit rate                                 : 1 509 kb/s
Channel(s)                               : 6 channels
Channel layout                           : C L R Ls Rs LFE
Sampling rate                            : 48.0 kHz
Frame rate                               : 93.750 FPS (512 SPF)
Bit depth                                : 24 bits
Compression mode                         : Lossy
Stream size                              : 919 MiB (28%)
Title                                    : / 5.1 Ch / 1509 kbps / Original
Language                                 : English
Default                                  : No
Forced                                   : No

Audio #3
ID                                       : 4
Format                                   : LC
Format/Info                              : Advanced Audio Codec Low Complexity
Codec ID                                 : A_AAC-2
Duration                                 : 1 h 25 min
Bit rate                                 : 123 kb/s
Channel(s)                               : 2 channels
Channel layout                           : L R
Sampling rate                            : 48.0 kHz
Frame rate                               : 46.875 FPS (1024 SPF)
Compression mode                         : Lossy
Stream size                              : 74.7 MiB (2%)
Title                                    : / 2.0 Ch / 124 kbps / Original / Rutt and Tuke's Commentary
Language                                 : English
Default                                  : No
Forced                                   : No

Text #1
ID                                       : 5
Format                                   : UTF-8
Codec ID                                 : S_TEXT/UTF8
Codec ID/Info                            : UTF-8 Plain Text
Duration                                 : 1 h 24 min
Bit rate                                 : 51 b/s
Count of elements                        : 879
Stream size                              : 31.7 KiB (0%)
Title                                    : Full
Language                                 : English
Default                                  : Yes
Forced                                   : No

Text #2
ID                                       : 6
Format                                   : UTF-8
Codec ID                                 : S_TEXT/UTF8
Codec ID/Info                            : UTF-8 Plain Text
Duration                                 : 1 h 24 min
Bit rate                                 : 57 b/s
Count of elements                        : 1041
Stream size                              : 35.5 KiB (0%)
Title                                    : SDH
Language                                 : English
Default                                  : No
Forced                                   : No

Text #3
ID                                       : 7
Format                                   : UTF-8
Codec ID                                 : S_TEXT/UTF8
Codec ID/Info                            : UTF-8 Plain Text
Duration                                 : 1 h 24 min
Bit rate                                 : 160 b/s
Count of elements                        : 1978
Stream size                              : 99.6 KiB (0%)
Title                                    : Commentary
Language                                 : English
Default                                  : No
Forced                                   : No

Menu
00:00:00.000                             : :Prologue: Denahi Remembers
00:02:01.287                             : :"Great Spirits"
00:07:03.464                             : :Kenai's Ceremony
00:11:24.100                             : :Glacier Fight
00:14:33.205                             : :Goodbye Sitka
00:15:21.253                             : :Argument
00:20:10.083                             : :"Transformation"
00:24:34.473                             : :Bear's Eye View
00:27:06.708                             : :Rutt & Tuke
00:29:45.617                             : :Meet Koda
00:33:01.187                             : :Ice Cave
00:36:18.926                             : :Denahi Finds The Ice Cave
00:38:26.053                             : :"On My Way"
00:42:22.581                             : :Nightmare On The Mammoths
00:44:18.030                             : :I Spy
00:47:10.369                             : :Abandoned Village
00:48:59.519                             : :Butting Heads
00:50:16.054                             : :Valley Of Fire
00:54:21.132                             : :Arrival At The Run
00:56:46.778                             : :"Welcome" (aka Fishing Song)
01:00:11.316                             : :Bear Party
01:04:58.895                             : :No Way Out / Kenai's Confession
01:08:28.854                             : :Denahi Sees A Sign
01:09:14.817                             : :Moose's Advice
01:11:20.109                             : :Mountain Top Fight
01:16:55.986                             : :Epilogue: "Great Spirits Reprise"
01:18:01.468                             : :Vignettes / End Credits
01:19:29.139                             : :"Through My Eyes"
Світлини




Джерело: &
Особиста оцінка: 10 - без зайвих вагань рекомендую всім!


Срібний реліз (на рейтинг впливає 50% завантаженого)
 Трекер:    Зареєстрований   

Завантажити / скачати мультфільм українською



відео для новачків



 Зареєстрований:   2019-10-20 23:14
 Розмір:   3.21 GB 
 Оцінка мультфільму:   10/10 (Голосів: 4)
   
Інші релізи
Ваш часовий пояс: GMT + 2 Години

Нова тема   Відповісти