Вчора / Yesterday (2019) UHD Remux 4K 2160p HDR H.265 Ukr/Eng | Sub Eng/Fre/Spa

Нові коментарі

Нова тема   Відповісти
Автор Повідомлення
Anonymous 







2019-10-20 23:01  
Вчора / Yesterday (2019) UHD Remux 4K 2160p HDR H.265 Ukr/Eng | Sub Eng/Fre/Spa

Вчора / Yesterday (2019) UHD Remux 4K 2160p HDR H.265 Ukr/Eng | Sub Eng/Fre/Spa


Альтернативні постери





«Світ забув про The Beatles. Але тільки не Джек...»



Жанр: комедія, мелодрама, музика, мюзикл, фентезі
Країна: Велика Британія, Росія, Китай





Кінокомпанія: Decibel Films, Etalon Film, Perfect World Pictures
Режисер: Денні Бойл
Актори: Гімеш Патель, Лілі Джеймс, Софі Ді Мартіно, Елліз Шаппелль, Міра Сайал, Гаррі Мішель, Вінсент Франклін, Джоель Фрай, Майкл Ківанука

Сюжет:
Уявіть собі світ, де всі забули про «The Beatles»… Молодий талановитий музикант розуміє – не можна втрачати такий шанс і видає хіти легендарного гурту за свої власні. Концерти, шоу, записи, слава і визнання! І це не сон, а нова комедія від оскароносного режисера Денні Бойла.


Тривалість: 01:56:14
Якість: UHD Remux 4K 2160p

Відео:
кодек: H.265 (HEVC)
розмір кадру: 3840x2160
бітрейт: 60.4 Мб/с
бітова глибина: 10 біт
кольоровий простір: BT.2020 (HDR)

Аудіо # 1:
мова: українська
переклад: професійний дубльований
кодек: 2.0
бітрейт: 192 кб/с

Аудіо # 2:
мова: англійська
переклад: оригінал
кодек: 5.1
бітрейт: 448 кб/с

Аудіо # 2:
мова: англійська
переклад: оригінал
кодек: TrueHD + Atmos 7.1
бітрейт: 3272 кб/с

Аудіо # 4:
мова: англійська
переклад: оригінал
кодек: 2.0 |Commentary|
бітрейт: 192 кб/с

Субтитри: (Forced, Full)
мова: іспанська
тип: програмні (м'які)
формат: *.pgs

Субтитри: (SDH)
мова: англійська
тип: програмні (м'які)
формат: *.pgs

Субтитри: (Forced, Full)
мова: французька
тип: програмні (м'які)
формат: *.pgs
Info
Код:
General
Complete name                            : Yesterday (2019) UHD Remux 4K 2160p HDR H.265 (HEVC) [UKR_ENG] [ViDeO_Hurtom].
Format                                   :
Format version                           : Version 4
File size                                : 52.5 GiB
Duration                                 : 1 h 56 min
Overall bit rate mode                    : Variable
Overall bit rate                         : 64.6 Mb/s
Movie name                               : Yesterday (2019) UHD Remux 4K 2160p HDR H.265 (HEVC) [UKR_ENG] [ViDeO_Hurtom]
Encoded date                             : UTC 2019-10-20 17:58:22
Writing application                      : v30.1.0 ('Forever And More') 64-bit
Writing library                          : libebml v1.3.6 + v1.4.9
Cover                                    : Yes
Attachments                              : cover.jpg

Video
ID                                       : 1
Format                                   : HEVC
Format/Info                              : High Efficiency Video Coding
Commercial name                          : HDR10
Format profile                           : Main [email protected]@High
Codec ID                                 : V_MPEGH/ISO/HEVC
Duration                                 : 1 h 56 min
Bit rate                                 : 60.4 Mb/s
Width                                    : 3 840 pixels
Height                                   : 2 160 pixels
Display aspect ratio                     : 16:9
Frame rate mode                          : Constant
Frame rate                               : 23.976 (24000/1001) FPS
Color space                              : YUV
Chroma subsampling                       : 4:2:0 (Type 2)
Bit depth                                : 10 bits
Bits/(Pixel*Frame)                       : 0.304
Stream size                              : 49.0 GiB (93%)
Title                                    : Yesterday.2019.2160p.BluRay.REMUX.HEVC.-HD.MA.TrueHD.7.1.Atmos-FGT
Language                                 : English
Default                                  : No
Forced                                   : No
Color range                              : Limited
Color primaries                          : BT.2020
Transfer characteristics                 : PQ
Matrix coefficients                      : BT.2020 non-constant
Mastering display color primaries        : Display P3
Mastering display luminance              : min: 0.0050 cd/m2, max: 1000 cd/m2
Maximum Content Light Level              : 999 cd/m2
Maximum Frame-Average Light Level        : 125 cd/m2

Audio #1
ID                                       : 2
Format                                   : AC-3
Format/Info                              : Audio Coding 3
Commercial name                          : Dolby Digital
Codec ID                                 : A_AC3
Duration                                 : 1 h 56 min
Bit rate mode                            : Constant
Bit rate                                 : 192 kb/s
Channel(s)                               : 2 channels
Channel layout                           : L R
Sampling rate                            : 48.0 kHz
Frame rate                               : 31.250 FPS (1536 SPF)
Bit depth                                : 16 bits
Compression mode                         : Lossy
Stream size                              : 160 MiB (0%)
Title                                    : 2.0 | 192 kb/s
Language                                 : Ukrainian
Service kind                             : Complete Main
Default                                  : Yes
Forced                                   : No

Audio #2
ID                                       : 3
Format                                   : AC-3
Format/Info                              : Audio Coding 3
Commercial name                          : Dolby Digital
Codec ID                                 : A_AC3
Duration                                 : 1 h 56 min
Bit rate mode                            : Constant
Bit rate                                 : 448 kb/s
Channel(s)                               : 6 channels
Channel layout                           : L R C LFE Ls Rs
Sampling rate                            : 48.0 kHz
Frame rate                               : 31.250 FPS (1536 SPF)
Bit depth                                : 16 bits
Compression mode                         : Lossy
Stream size                              : 372 MiB (1%)
Title                                    : 5.1 | 448 kb/s
Language                                 : English
Service kind                             : Complete Main
Default                                  : No
Forced                                   : No

Audio #3
ID                                       : 4
Format                                   : MLP FBA 16-ch
Format/Info                              : Meridian Lossless Packing FBA with 16-channel presentation
Commercial name                          : Dolby TrueHD with Dolby Atmos
Codec ID                                 : A_TRUEHD
Duration                                 : 1 h 56 min
Bit rate mode                            : Variable
Bit rate                                 : 3 272 kb/s
Maximum bit rate                         : 5 664 kb/s
Channel(s)                               : 8 channels
Channel layout                           : L R C LFE Ls Rs Lb Rb
Sampling rate                            : 48.0 kHz
Frame rate                               : 1 200.000 FPS (40 SPF)
Compression mode                         : Lossless
Stream size                              : 2.66 GiB (5%)
Title                                    : Dolby TrueHD with Dolby Atmos 7.1 | 3272 kb/s
Language                                 : English
Default                                  : No
Forced                                   : No
Number of dynamic objects                : 11
Bed channel count                        : 1 channel
Bed channel configuration                : LFE

Audio #4
ID                                       : 5
Format                                   : AC-3
Format/Info                              : Audio Coding 3
Commercial name                          : Dolby Digital
Codec ID                                 : A_AC3
Duration                                 : 1 h 56 min
Bit rate mode                            : Constant
Bit rate                                 : 192 kb/s
Channel(s)                               : 2 channels
Channel layout                           : L R
Sampling rate                            : 48.0 kHz
Frame rate                               : 31.250 FPS (1536 SPF)
Bit depth                                : 16 bits
Compression mode                         : Lossy
Stream size                              : 160 MiB (0%)
Title                                    : 2.0 | 192 kb/s
Language                                 : English
Service kind                             : Complete Main
Default                                  : No
Forced                                   : No

Text #1
ID                                       : 6
Format                                   : PGS
Muxing mode                              : zlib
Codec ID                                 : S_HDMV/PGS
Codec ID/Info                            : Picture based subtitle format used on BDs/HD-DVDs
Duration                                 : 1 h 54 min
Bit rate                                 : 901 b/s
Count of elements                        : 70
Stream size                              : 756 KiB (0%)
Title                                    : French-FORCED-PGS
Language                                 : French
Default                                  : No
Forced                                   : No

Text #2
ID                                       : 7
Format                                   : PGS
Muxing mode                              : zlib
Codec ID                                 : S_HDMV/PGS
Codec ID/Info                            : Picture based subtitle format used on BDs/HD-DVDs
Duration                                 : 1 h 44 min
Bit rate                                 : 179 b/s
Count of elements                        : 12
Stream size                              : 138 KiB (0%)
Title                                    : Spanish-FORCED-PGS
Language                                 : Spanish
Default                                  : No
Forced                                   : No

Text #3
ID                                       : 8
Format                                   : PGS
Muxing mode                              : zlib
Codec ID                                 : S_HDMV/PGS
Codec ID/Info                            : Picture based subtitle format used on BDs/HD-DVDs
Duration                                 : 1 h 54 min
Bit rate                                 : 59.0 kb/s
Count of elements                        : 4250
Stream size                              : 48.5 MiB (0%)
Title                                    : English-PGS
Language                                 : English
Default                                  : No
Forced                                   : No

Text #4
ID                                       : 9
Format                                   : PGS
Muxing mode                              : zlib
Codec ID                                 : S_HDMV/PGS
Codec ID/Info                            : Picture based subtitle format used on BDs/HD-DVDs
Duration                                 : 1 h 54 min
Bit rate                                 : 40.7 kb/s
Count of elements                        : 3065
Stream size                              : 33.4 MiB (0%)
Title                                    : Spanish-PGS
Language                                 : Spanish
Default                                  : No
Forced                                   : No

Text #5
ID                                       : 10
Format                                   : PGS
Muxing mode                              : zlib
Codec ID                                 : S_HDMV/PGS
Codec ID/Info                            : Picture based subtitle format used on BDs/HD-DVDs
Duration                                 : 1 h 54 min
Bit rate                                 : 43.8 kb/s
Count of elements                        : 3060
Stream size                              : 36.0 MiB (0%)
Title                                    : French-PGS
Language                                 : French
Default                                  : No
Forced                                   : No

Menu
00:00:00.000                             : en:Chapter 01
00:06:16.667                             : en:Chapter 02
00:11:19.470                             : en:Chapter 03
00:16:12.930                             : en:Chapter 04
00:21:28.245                             : en:Chapter 05
00:27:04.539                             : en:Chapter 06
00:33:31.884                             : en:Chapter 07
00:38:55.082                             : en:Chapter 08
00:45:53.250                             : en:Chapter 09
00:48:17.060                             : en:Chapter 10
00:56:24.339                             : en:Chapter 11
01:03:47.490                             : en:Chapter 12
01:09:16.485                             : en:Chapter 13
01:14:16.869                             : en:Chapter 14
01:19:04.614                             : en:Chapter 15
01:24:10.587                             : en:Chapter 16
01:31:51.923                             : en:Chapter 17
01:36:00.212                             : en:Chapter 18
01:40:03.247                             : en:Chapter 19
01:46:52.155                             : en:Chapter 20

Скріншоти


Джерело:
Особиста оцінка: 8 - мені сподобалося

Увага! Перед завантаженням переконайтесь, що ваш пристрій відтворення (та/або ПЗ) підтримує H.265 (HEVC)


Золотий реліз (завантажене не впливає на рейтинг)
 Трекер:    Зареєстрований   

Завантажити / скачати фільм українською



відео для новачків



 Зареєстрований:   2019-11-16 15:00
 Розмір:   52.46 GB 
 Оцінка фільму:   8.6/10 (Голосів: 14)
   
Інші релізи
   Вчора / Yesterday (2019) Remux 1080p Ukr/Eng | Sub Eng/Fre/Spa antik_2008  2 / 0   28.44 GB   2019-11-16 14:42 
   Вчора / Yesterday (2019) 1080p H.265 Ukr/Eng | Sub Eng -Star-Lord-  7 / 0   8.82 GB   2019-11-16 14:20 
   Вчора / Yesterday (2019) 1080p Ukr/Eng | Sub Eng/Fre/Spa antik_2008  5 / 0   8.03 GB   2019-11-16 14:12 
   Вчора / Yesterday (2019) antik_2008  18 / 0   1.47 GB   2019-11-16 14:05 
   Вчора / Yesterday (2019) AVC Ukr/Eng | Sub Eng 11FrYkT  9 / 0   1.95 GB   2019-11-15 18:41 
   Вчора / Yesterday (2019) 720p Ukr/Eng | Sub Eng 11FrYkT  0 / 0   7.57 GB   2019-11-15 18:38 
Anonymous 







2019-11-16 15:00  
16.11.2019 Роздачу оновлено


Замінив доріжку на якіснішу

Anonymous 







2019-11-24 00:11  
Чудовий фільм!
[email protected] 
Відео Гуртом - підтримка та поширення
Відео Гуртом - підтримка та поширення


З нами з: 16.06.12
Востаннє: 11.10.20
Повідомлень: 1424

2020-06-09 11:30  

Створена роздача на DC++ хабі Толока (сід "Схованка-*" 24/7)

Магніт: magnet:?xt=urn:tree:tiger:HRYLKNJQZHF2SKDTHAGYUITEIZELHFACSZRPG6Y&xl=56328100525&dn=Yesterday+(2019)+UHD+Remux+4K+2160p+HDR+H.265+(HEVC)+%5BUKR_ENG%5D+%5BViDeO_Hurtom%5D.
Або CTRL+S в клієнті і виконати пошук за хешом: HRYLKNJQZHF2SKDTHAGYUITEIZELHFACSZRPG6Y

Тема на форумі та як приєднатися: https://toloka.to/t103590

Ваш часовий пояс: GMT + 2 Години

Нова тема   Відповісти