Вихідний день Ферріса Бюллера / Ferris Bueller's day off (1986) 1080p Ukr/Eng | Sub Eng

Нові коментарі

Нова тема   Відповісти
Автор Повідомлення
Anonymous 







2019-10-20 15:39  
Вихідний день Ферріса Бюллера / Ferris Bueller's day off (1986) 1080p Ukr/Eng | Sub Eng

Вихідний день Ферріса Бюллера / Ferris Bueller's day off (1986) 1080p Ukr/Eng | Sub Eng

Жанр: комедія
Країна: США



Кінокомпанія: Paramount
Режисер: Джон Г'юз / John Hughes
Актори: Метью Бродерік / Matthew Broderick, Алан Рак / Alan Ruck, Мiа Сара / Mia Sara, Джеффрі Джонс / Jeffrey Jones, Дженніфер Ґрей / Jennifer Grey, Сінді Пікетт / Cindy Pickett, Лаймен Ворд / Lyman Ward, Еді МакКлурґ / Edie McClurg, Чарлі Шин / Charlie Sheen, Бен Стайн / Ben Stein та інші

Сюжет:
Ферріс Бьюллер незвичайний хлопчина, наділений неймовірною витримкою та спокоєм. Він просто взірець для всіх, хто надто серйозно сприймає життя. Чудового весняного дня напередодні випускних іспитів, його потяг у черговий раз прогуляти школу пересилює, та разом зі своєю подругою та найкращим другом, він вирушає у подорож через Чикаго, щоб помилуватися природою, відвідати музеї... та просто насолодитися вільним днем.


Тривалість: 01:43:00
Якість:

Відео:
кодек:
розмір кадру: 1920 x 816
бітрейт: 23 240 кб/с

Аудіо # 1:
мова: українська
переклад: багатоголосий закадровий
кодек: 5.1
бітрейт: 1510 кб/с
примітка: доріжка отримана накладанням чистих голосів на центр оригіналу (HDClub)

Аудіо # 2:
мова: англійська
переклад: оригінал
кодек: 5.1
бітрейт: 1511 кб/с

Аудіо # 3:
мова: англійська
переклад: оригінал | коментарі
кодек: AC-3 2.0
бітрейт: 192 кб/с

Субтитри # 1: (Forced)
мова: українська
тип: програмні (м'які)
формат: *.srt

Субтитри # 2-3: (Full, SDH)
мова: англійська
тип: програмні (м'які)
формат: *.srt


Info
Код:
General
Unique ID                                : 35009118202864693024432234481831390810 (0x1A5682CAD2F2F7D9DE859305E5BC2E5A)
Complete name                            : Ferris Bueller's day off (1986) 1080p [UKR_ENG] [Hurtom].
Format                                   :
Format version                           : Version 4
File size                                : 19.0 GiB
Duration                                 : 1 h 43 min
Overall bit rate                         : 26.5 Mb/s
Movie name                               : Вихідний день Ферріса Бюллера / Ferris Bueller's day off (1986)
Encoded date                             : UTC 2019-10-20 13:17:36
Writing application                      : v20.0.0 ('I Am The Sun') 64-bit
Writing library                          : libebml v1.3.5 + v1.4.8
Cover                                    : Yes
Attachments                              : Cover.jpg

Video
ID                                       : 1
Format                                   : AVC
Format/Info                              : Advanced Video Codec
Format profile                           : [email protected]
Format settings                          : CABAC / 5 Ref Frames
Format settings, CABAC                   : Yes
Format settings, Reference frames        : 5 frames
Codec ID                                 : V_MPEG4/ISO/AVC
Duration                                 : 1 h 43 min
Bit rate                                 : 23.2 Mb/s
Width                                    : 1 920 pixels
Height                                   : 816 pixels
Display aspect ratio                     : 2.35:1
Frame rate mode                          : Constant
Frame rate                               : 23.976 (24000/1001) FPS
Color space                              : YUV
Chroma subsampling                       : 4:2:0
Bit depth                                : 8 bits
Scan type                                : Progressive
Bits/(Pixel*Frame)                       : 0.619
Stream size                              : 16.7 GiB (88%)
Title                                    : Вихідний день Ферріса Бюллера / Ferris Bueller's day off (1986)
Writing library                          : core 155 r2867+74 66b5600 t_mod_Custom_2 [[email protected] X86_64]
Encoding settings                        : cabac=1 / ref=5 / deblock=1:-3:-3 / analyse=0x3:0x113 / me=umh / subme=11 / psy=1 / fade_compensate=0.00 / psy_rd=1.10:0.00 / mixed_ref=1 / me_range=32 / chroma_me=1 / trellis=2 / 8x8dct=1 / cqm=0 / deadzone=21,11 / fast_pskip=0 / chroma_qp_offset=-2 / threads=12 / lookahead_threads=3 / sliced_threads=0 / nr=0 / decimate=0 / interlaced=0 / bluray_compat=0 / constrained_intra=0 / fgo=0 / bframes=10 / b_pyramid=2 / b_adapt=2 / b_bias=0 / direct=3 / weightb=1 / open_gop=0 / weightp=2 / keyint=250 / keyint_min=23 / scenecut=40 / intra_refresh=0 / rc_lookahead=60 / rc=crf / mbtree=0 / crf=16.0000 / qcomp=0.60 / qpmin=0:0:0 / qpmax=69:69:69 / qpstep=4 / vbv_maxrate=62500 / vbv_bufsize=78125 / crf_max=0.0 / nal_hrd=none / filler=0 / ip_ratio=1.40 / pb_ratio=1.30 / aq=3:0.75 / aq-sensitivity=10.00 / aq-factor=1.00:1.00:1.00 / aq2=0 / aq3=0 / zones=8906,9007,crf=14.8/130042,135904,crf=15
Language                                 : English
Default                                  : No
Forced                                   : No
Color range                              : Limited
Color primaries                          : BT.709
Transfer characteristics                 : BT.709
Matrix coefficients                      : BT.709

Audio #1
ID                                       : 2
Format                                   :
Format/Info                              : Digital Theater Systems
Codec ID                                 : A_DTS
Duration                                 : 1 h 43 min
Bit rate mode                            : Constant
Bit rate                                 : 1 510 kb/s
Channel(s)                               : 6 channels
Channel layout                           : C L R Ls Rs LFE
Sampling rate                            : 48.0 kHz
Frame rate                               : 93.750 FPS (512 SPF)
Bit depth                                : 24 bits
Compression mode                         : Lossy
Stream size                              : 1.09 GiB (6%)
Title                                    : / 5.1 Ch / 1509 kbps / БЗ / Novy Kanal
Language                                 : Ukrainian
Default                                  : Yes
Forced                                   : Yes

Audio #2
ID                                       : 3
Format                                   :
Format/Info                              : Digital Theater Systems
Codec ID                                 : A_DTS
Duration                                 : 1 h 43 min
Bit rate mode                            : Constant
Bit rate                                 : 1 510 kb/s
Channel(s)                               : 6 channels
Channel layout                           : C L R Ls Rs LFE
Sampling rate                            : 48.0 kHz
Frame rate                               : 93.750 FPS (512 SPF)
Bit depth                                : 24 bits
Compression mode                         : Lossy
Stream size                              : 1.09 GiB (6%)
Title                                    : / 5.1 Ch / 1509 kbps / Original
Language                                 : English
Default                                  : No
Forced                                   : No

Audio #3
ID                                       : 4
Format                                   : AC-3
Format/Info                              : Audio Coding 3
Commercial name                          : Dolby Digital
Codec ID                                 : A_AC3
Duration                                 : 1 h 42 min
Bit rate mode                            : Constant
Bit rate                                 : 192 kb/s
Channel(s)                               : 2 channels
Channel layout                           : L R
Sampling rate                            : 48.0 kHz
Frame rate                               : 31.250 FPS (1536 SPF)
Bit depth                                : 16 bits
Compression mode                         : Lossy
Stream size                              : 141 MiB (1%)
Title                                    : / 2.0 Ch / 192 kbps / Original / Commentary by director John Hughes
Language                                 : English
Service kind                             : Complete Main
Default                                  : No
Forced                                   : No

Text #1
ID                                       : 5
Format                                   : UTF-8
Codec ID                                 : S_TEXT/UTF8
Codec ID/Info                            : UTF-8 Plain Text
Duration                                 : 1 h 41 min
Bit rate                                 : 0 b/s
Count of elements                        : 17
Stream size                              : 735 Bytes (0%)
Title                                    : Forced
Language                                 : Ukrainian
Default                                  : Yes
Forced                                   : Yes

Text #2
ID                                       : 6
Format                                   : UTF-8
Codec ID                                 : S_TEXT/UTF8
Codec ID/Info                            : UTF-8 Plain Text
Duration                                 : 1 h 42 min
Bit rate                                 : 53 b/s
Count of elements                        : 1201
Stream size                              : 40.3 KiB (0%)
Title                                    : Full
Language                                 : English
Default                                  : No
Forced                                   : No

Text #3
ID                                       : 7
Format                                   : UTF-8
Codec ID                                 : S_TEXT/UTF8
Codec ID/Info                            : UTF-8 Plain Text
Duration                                 : 1 h 42 min
Bit rate                                 : 58 b/s
Count of elements                        : 1400
Stream size                              : 44.0 KiB (0%)
Title                                    : SDH
Language                                 : English
Default                                  : No
Forced                                   : No

Menu
00:00:00.000                             : en:Faking Out the Parents
00:08:15.328                             : en:Faking Out Rooney
00:17:42.770                             : en:Emancipation of Sloane
00:25:54.928                             : en:The Car -- 1961 Ferrari 250 Gt California
00:31:29.846                             : en:Downtown
00:40:29.218                             : en:Lunch with Ferris
00:47:33.976                             : en:Rooney on the Trail
00:50:55.678                             : en:Bueller Residence vs. Rooney
00:58:01.728                             : en:Parade -- Ferris Style
01:05:37.392                             : en:Jeanie Encounters Rooney
01:11:20.026                             : en:Cameron Goes Berserk
01:19:45.114                             : en:Kill the Car
01:29:25.443                             : en:The Race Home
01:36:28.199                             : en:150% Better
Світлини




Джерело: &
Особиста оцінка: 0 - не дивився


Срібний реліз (на рейтинг впливає 50% завантаженого)
 Трекер:    Зареєстрований   

Завантажити / скачати фільм українською



відео для новачків



 Зареєстрований:   2019-10-20 15:39
 Розмір:   19.03 GB 
 Оцінка фільму:   8/10 (Голосів: 5)
   
Ваш часовий пояс: GMT + 2 Години

Нова тема   Відповісти