Король Лев / The Lion King (2019) 1080p H.265 Ukr/Eng | Sub Eng

Нові коментарі

Нова тема   Відповісти
Автор Повідомлення
Anonymous 







2019-10-20 13:23  
Король Лев / The Lion King (2019) 1080p H.265 Ukr/Eng | Sub Eng

Король Лев / The Lion King (2019) 1080p H.265 Ukr/Eng | Sub Eng


Жанр: драма, анімаційний, мюзикл, пригодницький, сімейний
Країна: США
Кінокомпанія: Walt Disney Pictures, Fairview Entertainment
Режисер: Джон Фавро
Актори: Джеймс Ерл Джонс, Дональд Гловер, Чіветел Еджиофор, Джон Олівер, Джон Кані, Елфрі Вудард, Шахаді Райт Джозеф, Пенні Джонсон, Кіген-Майкл Кі

Сюжет:
В африканській савані народжується новий король. Левеня Сімба ідеалізує свого батька короля Муфасу і серйозно ставиться до своєї королівської долі. Але не всі в королівстві звірів раді появі Сімби на світ — брат Муфаси Шрам будує плани, як скинути короля і зайняти його місце. Сімба опиняється у вигнанні і за допомогою нових друзів Тімона та Пумби і давньої подруги Нали повинен стати дорослим левом і повернутися додому, щоб зайняти трон в царстві звірів.

Тривалість: 01:58:15
Якість:

Відео:
кодек: H.265 (HEVC)
розмір кадру: 1920 x 1080
бітрейт: 10 582 кб/с
бітова глибина: 10 біт

Увага! Перед завантаженням переконайтесь, що ваш пристрій відтворення (та/або ПЗ) підтримує H.265 (HEVC)

Аудіо # 1:
мова: українська
переклад: професійний дубльований | студія LeDoyen
кодек: 5.1
бітрейт: 1510 кб/с

Аудіо # 2:
мова: англійська
переклад: оригінал
кодек: 5.1
бітрейт: 1510 кб/с

Субтитри # 1-2: (Full, SDH)
мова: англійська
тип: програмні (м'які)
формат: *.srt


Info
Код:
General
Unique ID                                : 40399413616506053720076734235025002180 (0x1E64A4DFEF449AC6D41AA2DCEF26CEC4)
Complete name                            : The Lion King (2019) 1080p H.265 [UKR_ENG] [Hurtom].
Format                                   :
Format version                           : Version 4
File size                                : 11.2 GiB
Duration                                 : 1 h 58 min
Overall bit rate                         : 13.6 Mb/s
Movie name                               : Король Лев / The Lion King (2019)
Encoded date                             : UTC 2019-12-17 07:16:29
Writing application                      : v20.0.0 ('I Am The Sun') 64-bit
Writing library                          : libebml v1.3.5 + v1.4.8
Cover                                    : Yes
Attachments                              : cover.jpg

Video
ID                                       : 1
Format                                   : HEVC
Format/Info                              : High Efficiency Video Coding
Format profile                           : Main [email protected]@High
Codec ID                                 : V_MPEGH/ISO/HEVC
Duration                                 : 1 h 58 min
Bit rate                                 : 10.6 Mb/s
Width                                    : 1 920 pixels
Height                                   : 1 080 pixels
Display aspect ratio                     : 16:9
Frame rate mode                          : Constant
Frame rate                               : 23.976 (24000/1001) FPS
Color space                              : YUV
Chroma subsampling                       : 4:2:0
Bit depth                                : 10 bits
Bits/(Pixel*Frame)                       : 0.213
Stream size                              : 8.74 GiB (78%)
Title                                    : Король Лев / The Lion King (2019)
Writing library                          : x265 3.1+7-147fb92c5ed5:[Windows][clang 8.0.0][64 bit] 10bit
Encoding settings                        : cpuid=1111039 / frame-threads=13 / wpp / no-pmode / no-pme / no-psnr / no-ssim / log-level=3 / input-csp=1 / input-res=1920x1080 / interlace=0 / total-frames=0 / level-idc=41 / high-tier=1 / uhd-bd=0 / ref=5 / allow-non-conformance / no-repeat-headers / annexb / no-aud / no-hrd / info / hash=0 / no-temporal-layers / open-gop / min-keyint=23 / keyint=240 / gop-lookahead=0 / bframes=8 / b-adapt=2 / b-pyramid / bframe-bias=0 / rc-lookahead=60 / lookahead-slices=4 / scenecut=40 / radl=0 / no-splice / no-intra-refresh / ctu=64 / min-cu-size=8 / rect / amp / max-tu-size=32 / tu-inter-depth=4 / tu-intra-depth=4 / limit-tu=4 / rdoq-level=2 / dynamic-rd=0.00 / no-ssim-rd / signhide / no-tskip / nr-intra=0 / nr-inter=0 / no-constrained-intra / no-strong-intra-smoothing / max-merge=5 / limit-refs=3 / limit-modes / me=3 / subme=7 / merange=57 / temporal-mvp / no-hme / weightp / weightb / no-analyze-src-pics / deblock=-3:-3 / no-sao / no-sao-non-deblock / rd=6 / no-early-skip / no-rskip / no-fast-intra / no-tskip-fast / no-cu-lossless / no-b-intra / no-splitrd-skip / rdpenalty=0 / psy-rd=2.00 / psy-rdoq=1.00 / no-rd-refine / no-lossless / cbqpoffs=0 / crqpoffs=0 / rc=crf / crf=18.0 / qcomp=0.60 / qpstep=4 / stats-write=0 / stats-read=0 / vbv-maxrate=50000 / vbv-bufsize=50000 / vbv-init=0.9 / crf-max=30.0 / crf-min=0.0 / ipratio=1.40 / pbratio=1.30 / aq-mode=2 / aq-strength=1.00 / no-cutree / zone-count=0 / no-strict-cbr / qg-size=32 / no-rc-grain / qpmax=69 / qpmin=0 / no-const-vbv / sar=1 / overscan=0 / videoformat=5 / range=0 / colorprim=1 / transfer=1 / colormatrix=1 / chromaloc=0 / display-window=0cll=0,0 / min-luma=0 / max-luma=1023 / log2-max-poc-lsb=8 / vui-timing-info / vui-hrd-info / slices=1 / no-opt-qp-pps / no-opt-ref-list-length-pps / no-multi-pass-opt-rps / scenecut-bias=0.05 / no-opt-cu-delta-qp / no-aq-motion / no-hdr / no-hdr-opt / no-dhdr10-opt / no-idr-recovery-sei / analysis-reuse-level=5 / scale-factor=0 / refine-intra=0 / refine-inter=0 / refine-mv=0 / refine-ctu-distortion=0 / no-limit-sao / ctu-info=0 / no-lowpass-dct / refine-analysis-type=12 / copy-pic=1 / max-ausize-factor=1.0 / no-dynamic-refine / no-single-sei / no-hevc-aq / no-svt / no-field / qp-adaptation-range=1.00
Language                                 : English
Default                                  : Yes
Forced                                   : No
Color range                              : Limited
Color primaries                          : BT.709
Transfer characteristics                 : BT.709
Matrix coefficients                      : BT.709

Audio #1
ID                                       : 2
Format                                   :
Format/Info                              : Digital Theater Systems
Codec ID                                 : A_DTS
Duration                                 : 1 h 58 min
Bit rate mode                            : Constant
Bit rate                                 : 1 509 kb/s
Channel(s)                               : 6 channels
Channel layout                           : C L R Ls Rs LFE
Sampling rate                            : 48.0 kHz
Frame rate                               : 93.750 FPS (512 SPF)
Bit depth                                : 24 bits
Compression mode                         : Lossy
Stream size                              : 1.25 GiB (11%)
Title                                    : / 5.1 Ch / 1509 kbps / ПД
Language                                 : Ukrainian
Default                                  : Yes
Forced                                   : Yes

Audio #2
ID                                       : 3
Format                                   :
Format/Info                              : Digital Theater Systems
Codec ID                                 : A_DTS
Duration                                 : 1 h 58 min
Bit rate mode                            : Constant
Bit rate                                 : 1 509 kb/s
Channel(s)                               : 6 channels
Channel layout                           : C L R Ls Rs LFE
Sampling rate                            : 48.0 kHz
Frame rate                               : 93.750 FPS (512 SPF)
Bit depth                                : 24 bits
Compression mode                         : Lossy
Stream size                              : 1.25 GiB (11%)
Title                                    : / 5.1 Ch / 1509 kbps / Original
Language                                 : English
Default                                  : No
Forced                                   : No

Text #1
ID                                       : 4
Format                                   : UTF-8
Codec ID                                 : S_TEXT/UTF8
Codec ID/Info                            : UTF-8 Plain Text
Duration                                 : 1 h 46 min
Bit rate                                 : 50 b/s
Count of elements                        : 1369
Stream size                              : 39.1 KiB (0%)
Title                                    : Full
Language                                 : English
Default                                  : Yes
Forced                                   : No

Text #2
ID                                       : 5
Format                                   : UTF-8
Codec ID                                 : S_TEXT/UTF8
Codec ID/Info                            : UTF-8 Plain Text
Duration                                 : 1 h 52 min
Bit rate                                 : 58 b/s
Count of elements                        : 1705
Stream size                              : 47.6 KiB (0%)
Title                                    : SDH
Language                                 : English
Default                                  : No
Forced                                   : No

Menu
00:00:00.000                             : :"Circle Of Life/Nants' Ingonyama"
00:04:50.499                             : :"Life's Not Fair"
00:10:51.067                             : :"Everything The Light Touches"
00:17:47.692                             : :"I Just Can't Wait To Be King"
00:23:53.015                             : :Elephant Graveyard
00:30:00.132                             : :Under The Stars
00:33:05.066                             : :"Be Prepared"
00:37:09.310                             : :Stampede
00:43:42.912                             : :Scar Takes Over
00:50:47.336                             : :Timon And Pumbaa
00:55:02.716                             : :"Hakuna Matata"
00:59:48.460                             : :Scar's Kingdom
01:06:27.233                             : :"Line Of Indifference"
01:14:32.093                             : :"The Lion Sleeps Tonight"
01:18:26.410                             : :"Can You Feel The Love Tonight"
01:23:07.900                             : :"He Lives In You"
01:28:04.654                             : :"Spirit"
01:33:10.877                             : :Simba Confronts Scar
01:37:13.745                             : :Battle For Pride Rock
01:44:39.190                             : :The Rightful King
01:47:47.336                             : :End Credits/"Never Too Late"
Світлини




Джерело: &
Особиста оцінка: 10 - без зайвих вагань рекомендую всім!


 Трекер:    Зареєстрований   

Завантажити / скачати фільм українською



відео для новачків



 Зареєстрований:   2019-12-17 14:28
 Розмір:   11.24 GB 
 Оцінка фільму:   8.7/10 (Голосів: 16)
   
Інші релізи
   Король Лев / The Lion King (2019) Remux 1080p Ukr/Eng | Sub Eng antik_2008  10 / 0   32.7 GB   2019-12-16 23:30 
   Король Лев / The Lion King (2019) 1080p Ukr/Eng | Sub Eng antik_2008  24 / 0   17.79 GB   2019-12-16 23:29 
   Король Лев / The Lion King (2019) UHD Remux 4K 2160p HDR H.265 Ukr/Eng | Sub Eng antik_2008  13 / 0   54.54 GB   2019-12-16 22:13 
   Король Лев / The Lion King (2019) 1080p H.265 Ukr/Eng | Sub Eng antik_2008  24 / 0   8.97 GB   2019-12-16 20:30 
   Король Лев / The Lion King (2019) antik_2008  37 / 3   2.09 GB   2019-12-16 17:09 
   Король Лев / The Lion King (2019) AVC Ukr/Eng | Sub Eng 11FrYkT  30 / 1   2.44 GB   2019-12-16 16:19 
   Король Лев / The Lion King (2019) 720p Ukr/Eng | Sub Eng 11FrYkT  24 / 0   5.78 GB   2019-12-16 16:02 
libracinema 
Частий відвідувач


З нами з: 27.10.17
Востаннє: 29.02.20
Повідомлень: 25

2019-12-11 23:47  
Чому так довго немає 5.1 звуку?
Gingеrbread 
VIP


З нами з: 01.07.19
Востаннє: 29.02.20
Повідомлень: 360

2019-12-12 00:02  
libracinema написано:
Чому так довго немає 5.1 звуку?

Купіть, хто заважає?
4.99$ в ітюнсі

Anonymous 







2019-12-17 14:28  
Замінено укр. доріжку на якіснішу.
Ваш часовий пояс: GMT + 2 Години

Нова тема   Відповісти