Тисяча слів / A Thousand Words (2012) Remux 1080p 2хUkr/Eng | Sub Eng

Нові коментарі

Нова тема   Відповісти
Останній раз роздавалося ngxwinger (2019-10-29)
Автор Повідомлення
Anonymous 







2019-10-20 09:29  
Тисяча слів / A Thousand Words (2012) Remux 1080p 2хUkr/Eng | Sub Eng

Тисяча слів / A Thousand Words (2012) Remux 1080p 2хUkr/Eng | Sub Eng


Жанр: комедія, драма, романтичний
Країна: США



Кінокомпанія: DreamWorks SKG, Saturn Films, Work After Midnight Films
Режисер: Брайан Робінс / Brian Robbins
Актори: Едді Мерфі / Eddie Murphy, Еллісон Дженні / Allison Janney, Аріель Вінтер / Ariel Winter, Керрі Вашинґтон / Kerry Washington, Кліфф Картіс / Cliff Curtis, Кларк Дьюк / Clark Duke, Джон Візерспун / John Witherspoon та інші

Сюжет:
Джек - невмовкаючий літературний агент. Він готовий говорити, говорити, говорити і не зупинятися. Важливий плюс у роботі Джека, адже ніхто не йшов від нього з непідписаним контрактом. Все йшло начебто чудово. Але одного разу Джек зустрів таємничого доктора Сінджа. Не зважаючи на такий талант в роботі, Джеку не вдається підписати з ним контракт. Мало того, загадковий буддист штовхає Джека на важливе випробування в його житті. Одного разу він дізнається, що йому залишилося вимовити вголос рівно тисячу слів, після чого він обов'язково помре ...


Тривалість: 01:31:30
Якість: Remux 1080p
Відео:
кодек:
розмір кадру: 1920x1080
бітрейт: ~29883 кб/с

Аудіо # 1:
мова: українська
переклад: багатоголосий закадровий
кодек: 2.0
бітрейт: 192 кб/с

Аудіо # 2:
мова: українська
переклад: багатоголосий закадровий
кодек: 5.1
бітрейт: 384 кб/с

Аудіо # 3:
мова: англійська
переклад: оригінал
кодек: -HD Master 5.1
бітрейт: 3679 кб/с

Субтитри: (Full)
мова: англійська
тип: програмні (м'які)
формат: *.pgs

Збережено оригінальні розділи, як на Blu-ray.
Info
Код:
General
Complete name                            : A Thousand Words (2012) Blu-Ray Remux 1080p [ukr,eng] [ViDeO_Hurtom].
Format                                   :
Format version                           : Version 4
File size                                : 21.8 GiB
Duration                                 : 1 h 31 min
Overall bit rate mode                    : Variable
Overall bit rate                         : 34.2 Mb/s
Movie name                               : A Thousand Words (2012) Blu-Ray Remux 1080p [ukr,eng] [ViDeO_Hurtom]
Encoded date                             : UTC 2019-10-20 06:54:13
Writing application                      : v30.1.0 ('Forever And More') 64-bit
Writing library                          : libebml v1.3.6 + v1.4.9
Cover                                    : Yes
Attachments                              : cover.jpg

Video
ID                                       : 1
Format                                   : AVC
Format/Info                              : Advanced Video Codec
Format profile                           : [email protected]
Format settings                          : CABAC / 2 Ref Frames
Format settings, CABAC                   : Yes
Format settings, RefFrames               : 2 frames
Codec ID                                 : V_MPEG4/ISO/AVC
Duration                                 : 1 h 31 min
Bit rate mode                            : Variable
Bit rate                                 : 29.9 Mb/s
Width                                    : 1 920 pixels
Height                                   : 1 080 pixels
Display aspect ratio                     : 16:9
Frame rate mode                          : Constant
Frame rate                               : 23.976 (24000/1001) FPS
Color space                              : YUV
Chroma subsampling                       : 4:2:0
Bit depth                                : 8 bits
Scan type                                : Progressive
Bits/(Pixel*Frame)                       : 0.601
Stream size                              : 19.1 GiB (87%)
Default                                  : Yes
Forced                                   : No

Audio #1
ID                                       : 2
Format                                   : AC-3
Format/Info                              : Audio Coding 3
Commercial name                          : Dolby Digital
Codec ID                                 : A_AC3
Duration                                 : 1 h 31 min
Bit rate mode                            : Constant
Bit rate                                 : 192 kb/s
Channel(s)                               : 2 channels
Channel layout                           : L R
Sampling rate                            : 48.0 kHz
Frame rate                               : 31.250 FPS (1536 SPF)
Bit depth                                : 16 bits
Compression mode                         : Lossy
Stream size                              : 126 MiB (1%)
Title                                    : , 2 ch, 192 Кбт/с
Language                                 : Ukrainian
Service kind                             : Complete Main
Default                                  : Yes
Forced                                   : No

Audio #2
ID                                       : 3
Format                                   : AC-3
Format/Info                              : Audio Coding 3
Commercial name                          : Dolby Digital
Codec ID                                 : A_AC3
Duration                                 : 1 h 31 min
Bit rate mode                            : Constant
Bit rate                                 : 384 kb/s
Channel(s)                               : 6 channels
Channel layout                           : L R C LFE Ls Rs
Sampling rate                            : 48.0 kHz
Frame rate                               : 31.250 FPS (1536 SPF)
Bit depth                                : 16 bits
Compression mode                         : Lossy
Stream size                              : 251 MiB (1%)
Title                                    : , 6 ch, 384 Кбт/с
Language                                 : Ukrainian
Service kind                             : Complete Main
Default                                  : No
Forced                                   : No

Audio #3
ID                                       : 4
Format                                   : XLL
Format/Info                              : Digital Theater Systems
Commercial name                          : -HD Master Audio
Codec ID                                 : A_DTS
Duration                                 : 1 h 31 min
Bit rate mode                            : Variable
Bit rate                                 : 3 681 kb/s
Channel(s)                               : 6 channels
Channel layout                           : C L R Ls Rs LFE
Sampling rate                            : 48.0 kHz
Frame rate                               : 93.750 FPS (512 SPF)
Bit depth                                : 24 bits
Compression mode                         : Lossless
Stream size                              : 2.35 GiB (11%)
Title                                    : -HD MA, 6 ch, 3679 Кбт/с
Language                                 : English
Default                                  : No
Forced                                   : No

Text #1
ID                                       : 5
Format                                   : PGS
Muxing mode                              : zlib
Codec ID                                 : S_HDMV/PGS
Codec ID/Info                            : Picture based subtitle format used on BDs/HD-DVDs
Duration                                 : 1 h 26 min
Bit rate                                 : 46.0 kb/s
Count of elements                        : 2724
Stream size                              : 28.3 MiB (0%)
Title                                    : Full
Language                                 : English
Default                                  : Yes
Forced                                   : No

Text #2
ID                                       : 6
Format                                   : PGS
Muxing mode                              : zlib
Codec ID                                 : S_HDMV/PGS
Codec ID/Info                            : Picture based subtitle format used on BDs/HD-DVDs
Duration                                 : 1 h 26 min
Bit rate                                 : 50.0 kb/s
Count of elements                        : 2998
Stream size                              : 30.8 MiB (0%)
Title                                    : SDH
Language                                 : English
Default                                  : No
Forced                                   : No
Скріншоти



Запис з ТБ: OlegCena, ratbol, Sando7
Синхронізація : patriot2305


Джерело: &
Особиста оцінка: 8 - мені сподобалося


Авторський реліз (завантажувати можна без реєстрації)
 Трекер:    Зареєстрований   

Завантажити / скачати фільм українською



відео для новачків



 Зареєстрований:   2019-10-20 09:29
 Розмір:   21.84 GB 
 Оцінка фільму:   10/10 (Голосів: 4)
   
Інші релізи
   Тисяча слів / A Thousand Words (2012) 1080p 2хUkr/Eng | Sub Eng antik_2008  4 / 0   9.96 GB   2019-10-18 21:30 
   Тисяча слів / A Thousand Words (2012) AVC 2хUkr/Eng | Sub Eng Maters  8 / 0   1.99 GB   2019-10-18 19:04 
   Тисяча слів / A Thousand Words (2012) patriot2305  4 / 0   1.45 GB   2015-01-07 16:51 
   Тисяча слів / A Thousand Words (2012) 720p 2хUkr/Eng | Sub Eng kino.  2 / 0   4.29 GB   2014-06-11 17:29 
   Тисяча слів / A Thousand Words (2012) TRO[9]N  2 / 0   1.46 GB   2012-11-11 21:50 
Ваш часовий пояс: GMT + 2 Години

Нова тема   Відповісти