Русалонька 2. Повернення до моря / The Little Mermaid II: Return to the Sea (2000) Remux 1080p Ukr/Eng | sub Eng

Нові коментарі

Нова тема   Відповісти
Автор Повідомлення
sergiyko.5 
Забанено
Забанено


З нами з: 25.02.16
Востаннє: 29.10.20
Повідомлень: 3648

2019-10-19 18:41  
Всі одноіменні релізи на трекері

Русалонька 2. Повернення до моря / The Little Mermaid II: Return to the Sea (2000) Remux 1080p Ukr/Eng | sub Eng


Русалонька 2. Повернення до моря / The Little Mermaid II: Return to the Sea (2000) Remux 1080p Ukr/Eng | sub Eng

Жанр: мюзикл, фентезі, драма
Країна: США



Кінокомпанія: Disney Studios
Режисер: Джим Кеммерад

Сюжет:
Дочка Аріель і принца Еріка, Мелоді, уже подорослішала, але її невблаганно вабить море. І, не дивлячись на всі зусилля її батьків, дівчинка все ж тікає в такий улюблений для неї світ. Там юна русалка зустрічає відьму Моргану, не менше підступну, ніж її сестра Урсула. Чи зможе Мелоді стати на перешкоді хитрого плану лиходійки і врятувати Атлантику?


Тривалість: 01:15:12
Якість: Remux

Відео: кодек: розмір кадру: 1920 x 1080 бітрейт: 26800 кб/с
Аудіо # 1: мова: українська переклад: професійний дубльований кодек: 2.0 бітрейт: 192 кб/с
Аудіо # 2: мова: англійська переклад: оригінал кодек: -HD Master Audio 5.1 бітрейт: 2612 кб/с
Субтитри: мова: англійська тип: пререндерні формат: *.pgs
Про файл:
General
Unique ID : 215944724420879657911223479393635180354 (0xA27570EC8CB9FD673DB2451984BA9F42)
Complete name : D:\Documents\Torrents\MULT\The Little Mermaid II.Return to the Sea.2000.1080p.Remux.
Format :
Format version : Version 4
File size : 15.6 GiB
Duration : 1 h 15 min
Overall bit rate mode : Variable
Overall bit rate : 29.6 Mb/s
Movie name : The Little Mermaid II. Return to the Sea 2000 BD by sergiyko
Encoded date : UTC 2019-10-19 15:55:13
Writing application : v36.0.0 ('Is That Jazz?') 64-bit
Writing library : libebml v1.3.9 + v1.5.2
Cover : Yes
Attachments : cover.jpeg

Video
ID : 1
Format : AVC
Format/Info : Advanced Video Codec
Format profile : [email protected]
Format settings : CABAC / 4 Ref Frames
Format settings, CABAC : Yes
Format settings, Reference : 4 frames
Codec ID : V_MPEG4/ISO/AVC
Duration : 1 h 15 min
Bit rate mode : Variable
Bit rate : 26.8 Mb/s
Maximum bit rate : 31.0 Mb/s
Width : 1 920 pixels
Height : 1 080 pixels
Display aspect ratio : 16:9
Frame rate mode : Constant
Frame rate : 23.976 (24000/1001) FPS
Color space : YUV
Chroma subsampling : 4:2:0
Bit depth : 8 bits
Scan type : Progressive
Bits/(Pixel*Frame) : 0.539
Stream size : 14.1 GiB (90%)
Title : The Little Mermaid II.Return to the Sea.2000
Language : English
Default : Yes
Forced : No

Audio #1
ID : 2
Format : AC-3
Format/Info : Audio Coding 3
Commercial name : Dolby Digital
Codec ID : A_AC3
Duration : 1 h 15 min
Bit rate mode : Constant
Bit rate : 192 kb/s
Channel(s) : 2 channels
Channel layout : L R
Sampling rate : 48.0 kHz
Frame rate : 31.250 FPS (1536 SPF)
Bit depth : 16 bits
Compression mode : Lossy
Stream size : 103 MiB (1%)
Title : DUB 2.0ch
Language : Ukrainian
Service kind : Complete Main
Default : Yes
Forced : Yes

Audio #2
ID : 3
Format : XLL
Format/Info : Digital Theater Systems
Commercial name : -HD Master Audio
Codec ID : A_DTS
Duration : 1 h 15 min
Bit rate mode : Variable
Bit rate : 2 612 kb/s
Channel(s) : 6 channels
Channel layout : C L R Ls Rs LFE
Sampling rate : 48.0 kHz
Frame rate : 93.750 FPS (512 SPF)
Bit depth : 24 bits
Compression mode : Lossless
Stream size : 1.37 GiB (9%)
Title : Original
Language : English
Default : No
Forced : No

Text #1
ID : 4
Format : PGS
Muxing mode : zlib
Codec ID : S_HDMV/PGS
Codec ID/Info : Picture based subtitle format used on BDs/HD-DVDs
Duration : 1 h 11 min
Bit rate : 40.9 kb/s
Count of elements : 2354
Stream size : 20.9 MiB (0%)
Language : English
Default : No
Forced : No

Text #2
ID : 5
Format : PGS
Muxing mode : zlib
Codec ID : S_HDMV/PGS
Codec ID/Info : Picture based subtitle format used on BDs/HD-DVDs
Duration : 1 h 8 min
Bit rate : 35.0 kb/s
Count of elements : 1858
Stream size : 17.1 MiB (0%)
Language : English
Default : No
Forced : No

Menu
00:00:00.000 : en:Chapter 01
00:04:00.323 : en:Chapter 02
00:04:33.273 : en:Chapter 03
00:09:56.345 : en:Chapter 04
00:16:45.421 : en:Chapter 05
00:20:52.209 : en:Chapter 06
00:23:55.225 : en:Chapter 07
00:25:54.427 : en:Chapter 08
00:28:19.698 : en:Chapter 09
00:32:50.510 : en:Chapter 10
00:35:40.680 : en:Chapter 11
00:37:27.245 : en:Chapter 12
00:44:28.123 : en:Chapter 13
00:46:24.907 : en:Chapter 14
00:52:59.426 : en:Chapter 15
01:00:07.562 : en:Chapter 16
01:02:18.192 : en:Chapter 17
01:05:49.695 : en:Chapter 18
01:08:58.717 : en:Chapter 19
Скріншоти:


Придбання, синхронізація: sergiyko


Золотий реліз (завантажене не впливає на рейтинг)
 Трекер:    Зареєстрований   

Завантажити / скачати мультфільм українською



відео для новачків



 Зареєстрований:   2019-10-19 18:41
 Розмір:   15.57 GB 
 Оцінка мультфільму:   10/10 (Голосів: 5)
   
igor911 
Модератор відео


З нами з: 18.01.08
Востаннє: 03.03.21
Повідомлень: 15609

2019-10-19 18:46  
sergiyko.5 написано:
тип: програмні (м'які) формат: *.pgs

треба виправити на "пререндерні"

vovang6 
Поважний учасник


З нами з: 27.08.12
Востаннє: 02.03.21
Повідомлень: 223

2019-10-19 18:54  
Дайте швидкості)
Ваш часовий пояс: GMT + 2 Години

Нова тема   Відповісти