Русалонька. Дитинство Аріель / The Little Mermaid: Ariel's Beginning (2008) Remux 1080p Ukr/Eng | sub Eng

Нові коментарі

Нова тема   Відповісти
Автор Повідомлення
sergiyko.5 
VIP


З нами з: 25.02.16
Востаннє: 02.04.20
Повідомлень: 3016

2019-10-19 19:30  
Всі одноіменні релізи на трекері

Русалонька. Дитинство Аріель / The Little Mermaid: Ariel's Beginning (2008) Remux 1080p Ukr/Eng | sub Eng


Русалонька. Дитинство Аріель / The Little Mermaid: Ariel's Beginning (2008) Remux 1080p Ukr/Eng | sub Eng

Жанр: мюзікл, фентезі, драма
Країна: США



Кінокомпанія: Disneytoon Studios
Режисер: Пеггі Холмс

Сюжет:
Дія мультика відбувається в ті давні часи, коли Аріель ще не зустріла своє справжнє кохання Еріка. Музичні інструменти і заняття музикою були заборонені в підводному королівстві. Юну русалоньку це дуже засмучувало, адже вона була змушена або порушити правила, або покинути своє улюблене заняття.


Тривалість: 01:17:31
Якість: Remux

Відео: кодек: розмір кадру: 1920 x 1080 бітрейт: 26700 кб/с
Аудіо # 1: мова: українська переклад: професійний дубльований кодек: 2.0 бітрейт: 192 кб/с
Аудіо # 2: мова: англійська переклад: оригінал кодек: -HD Master Audio 5.1 бітрейт: 3970 кб/с
Субтитри: мова: англійська тип: пререндерні формат: *.pgs
Про файл:
General
Unique ID : 301520736684674238131365637690473741085 (0xE2D6C8148B2CFFCF00F52D64341A7B1D)
Complete name : D:\Documents\Torrents\MULT\The.Little.Mermaid.Ariels.Beginning.2008.1080p.Remux.
Format :
Format version : Version 4
File size : 16.7 GiB
Duration : 1 h 17 min
Overall bit rate mode : Variable
Overall bit rate : 30.8 Mb/s
Movie name : The Little Mermaid. Ariel's Beginning 2008 BD by sergiyko
Encoded date : UTC 2019-10-19 16:04:37
Writing application : v36.0.0 ('Is That Jazz?') 64-bit
Writing library : libebml v1.3.9 + v1.5.2
Cover : Yes
Attachments : cover.jpeg

Video
ID : 1
Format : AVC
Format/Info : Advanced Video Codec
Format profile : [email protected]
Format settings : CABAC / 4 Ref Frames
Format settings, CABAC : Yes
Format settings, Reference : 4 frames
Codec ID : V_MPEG4/ISO/AVC
Duration : 1 h 17 min
Bit rate mode : Variable
Bit rate : 26.7 Mb/s
Maximum bit rate : 31.0 Mb/s
Width : 1 920 pixels
Height : 1 080 pixels
Display aspect ratio : 16:9
Frame rate mode : Constant
Frame rate : 23.976 (24000/1001) FPS
Color space : YUV
Chroma subsampling : 4:2:0
Bit depth : 8 bits
Scan type : Progressive
Bits/(Pixel*Frame) : 0.536
Stream size : 14.4 GiB (86%)
Title : The Little Mermaid.Ariel's Beginning 2008
Language : English
Default : Yes
Forced : No

Audio #1
ID : 2
Format : AC-3
Format/Info : Audio Coding 3
Commercial name : Dolby Digital
Codec ID : A_AC3
Duration : 1 h 17 min
Bit rate mode : Constant
Bit rate : 192 kb/s
Channel(s) : 2 channels
Channel layout : L R
Sampling rate : 48.0 kHz
Frame rate : 31.250 FPS (1536 SPF)
Bit depth : 16 bits
Compression mode : Lossy
Stream size : 107 MiB (1%)
Title : DUB 2.0ch
Language : Ukrainian
Service kind : Complete Main
Default : Yes
Forced : Yes

Audio #2
ID : 3
Format : XLL
Format/Info : Digital Theater Systems
Commercial name : -HD Master Audio
Codec ID : A_DTS
Duration : 1 h 17 min
Bit rate mode : Variable
Bit rate : 3 970 kb/s
Channel(s) : 6 channels
Channel layout : C L R Ls Rs LFE
Sampling rate : 48.0 kHz
Frame rate : 93.750 FPS (512 SPF)
Bit depth : 24 bits
Compression mode : Lossless
Stream size : 2.15 GiB (13%)
Title : Original
Language : English
Default : No
Forced : No

Text #1
ID : 4
Format : PGS
Muxing mode : zlib
Codec ID : S_HDMV/PGS
Codec ID/Info : Picture based subtitle format used on BDs/HD-DVDs
Duration : 1 h 9 min
Bit rate : 45.9 kb/s
Count of elements : 1797
Stream size : 22.8 MiB (0%)
Language : English
Default : No
Forced : No

Text #2
ID : 5
Format : PGS
Muxing mode : zlib
Codec ID : S_HDMV/PGS
Codec ID/Info : Picture based subtitle format used on BDs/HD-DVDs
Duration : 1 h 9 min
Bit rate : 53.7 kb/s
Count of elements : 2138
Stream size : 26.8 MiB (0%)
Language : English
Default : No
Forced : No

Menu
00:00:00.000 : en:Chapter 01
00:02:42.745 : en:Chapter 02
00:05:40.214 : en:Chapter 03
00:10:02.643 : en:Chapter 04
00:15:24.256 : en:Chapter 05
00:19:06.061 : en:Chapter 06
00:24:00.272 : en:Chapter 07
00:26:22.664 : en:Chapter 08
00:29:00.029 : en:Chapter 09
00:33:38.891 : en:Chapter 10
00:37:39.215 : en:Chapter 11
00:41:25.107 : en:Chapter 12
00:44:33.504 : en:Chapter 13
00:48:04.548 : en:Chapter 14
00:52:25.433 : en:Chapter 15
00:55:21.776 : en:Chapter 16
01:00:26.622 : en:Chapter 17
01:04:42.753 : en:Chapter 18
01:06:58.013 : en:Chapter 19
01:09:24.702 : en:Chapter 20
01:10:43.238 : en:Chapter 21
Скріншоти:


Придбання, синхронізація: sergiyko


Золотий реліз (завантажене не впливає на рейтинг)
 Трекер:    Зареєстрований   

Завантажити / скачати мультфільм українською



відео для новачків



 Зареєстрований:   2019-10-19 19:30
 Розмір:   16.71 GB 
 Оцінка мультфільму:   10/10 (Голосів: 4)
   
Ваш часовий пояс: GMT + 2 Години

Нова тема   Відповісти