Русалонька 2. Повернення до моря / The Little Mermaid II: Return to the Sea (2000) AVC Ukr/Eng | sub Eng

Нові коментарі

Нова тема   Відповісти
Автор Повідомлення
sergiyko.5 
VIP


З нами з: 25.02.16
Востаннє: 28.10.20
Повідомлень: 3638

2019-10-19 17:42  
Русалонька 2. Повернення до моря / The Little Mermaid II: Return to the Sea (2000) AVC Ukr/Eng | sub Eng


Русалонька 2. Повернення до моря / The Little Mermaid II: Return to the Sea (2000) AVC Ukr/Eng | sub Eng

Жанр: мюзікл, фентезі, драма
Країна: США
Кінокомпанія: Disneytoon Studios
Режисер: Джим Кеммерад

Сюжет:
Дочка Аріель і принца Еріка, Мелоді, уже подорослішала, але її невблаганно вабить море. І, не дивлячись на всі зусилля її батьків, дівчинка все ж тікає в такий улюблений для неї світ. Там юна русалка зустрічає відьму Моргану, не менше підступну, ніж її сестра Урсула. Чи зможе Мелоді стати на перешкоді хитрого плану лиходійки і врятувати Атлантику?




Тривалість: 01:15:12
Якість:

Відео: кодек: розмір кадру: 1024 x 576 бітрейт: 1900 кб/с
Аудіо # 1: мова: українська переклад: професійний дубльований кодек: 2.0 бітрейт: 192 кб/с
Аудіо # 2: мова: англійська переклад: оригінал кодек: 5.1 бітрейт: 384 кб/с
Субтитри: мова: англійська тип: програмні (м'які) формат: *.srt
Про файл:
General
Unique ID : 266720171759847559921361507170779509305 (0xC8A86FC229AF754436BA8D45DF35B239)
Complete name : D:\Documents\Torrents\MULT\The Little Mermaid II.Return to the Sea.2000.AVC.
Format :
Format version : Version 4
File size : 1.36 GiB
Duration : 1 h 15 min
Overall bit rate mode : Variable
Overall bit rate : 2 586 kb/s
Movie name : The Little Mermaid II. Return to the Sea 2000 by sergiyko
Encoded date : UTC 2019-10-19 15:15:10
Writing application : v36.0.0 ('Is That Jazz?') 64-bit
Writing library : libebml v1.3.9 + v1.5.2
Cover : Yes
Attachments : cover.jpeg

Video
ID : 1
Format : AVC
Format/Info : Advanced Video Codec
Format profile : [email protected]
Format settings : CABAC / 10 Ref Frames
Format settings, CABAC : Yes
Format settings, Reference fra : 10 frames
Codec ID : V_MPEG4/ISO/AVC
Duration : 1 h 15 min
Bit rate mode : Variable
Bit rate : 1 940 kb/s
Maximum bit rate : 40.0 Mb/s
Width : 1 024 pixels
Height : 576 pixels
Display aspect ratio : 16:9
Frame rate mode : Constant
Frame rate : 23.976 (24000/1001) FPS
Color space : YUV
Chroma subsampling : 4:2:0
Bit depth : 8 bits
Scan type : Progressive
Bits/(Pixel*Frame) : 0.137
Stream size : 1.02 GiB (75%)
Title : The Little Mermaid II.Return to the Sea.2000
Writing library : core 133 r2334 a3ac64b
Encoding settings : cabac=1 / ref=10 / deblock=1:-2:-1 / analyse=0x3:0x133 / me=umh / subme=11 / psy=1 / psy_rd=0.60:0.00 / mixed_ref=1 / me_range=32 / chroma_me=1 / trellis=2 / 8x8dct=1 / cqm=0 / deadzone=21,11 / fast_pskip=0 / chroma_qp_offset=-2 / threads=6 / lookahead_threads=1 / sliced_threads=0 / nr=0 / decimate=0 / interlaced=0 / bluray_compat=0 / constrained_intra=0 / bframes=11 / b_pyramid=2 / b_adapt=2 / b_bias=0 / direct=3 / weightb=1 / open_gop=0 / weightp=2 / keyint=240 / keyint_min=24 / scenecut=40 / intra_refresh=0 / rc_lookahead=60 / rc=2pass / mbtree=0 / bitrate=1940 / ratetol=1.0 / qcomp=0.70 / qpmin=0 / qpmax=69 / qpstep=4 / cplxblur=20.0 / qblur=0.5 / vbv_maxrate=50000 / vbv_bufsize=62500 / nal_hrd=none / ip_ratio=1.40 / pb_ratio=1.20 / aq=2:0.
Language : English
Default : Yes
Forced : No

Audio #1
ID : 2
Format : AC-3
Format/Info : Audio Coding 3
Commercial name : Dolby Digital
Codec ID : A_AC3
Duration : 1 h 15 min
Bit rate mode : Constant
Bit rate : 192 kb/s
Channel(s) : 2 channels
Channel layout : L R
Sampling rate : 48.0 kHz
Frame rate : 31.250 FPS (1536 SPF)
Bit depth : 16 bits
Compression mode : Lossy
Stream size : 103 MiB (7%)
Title : DUB 2.0ch
Language : Ukrainian
Service kind : Complete Main
Default : Yes
Forced : Yes

Audio #2
ID : 3
Format : AC-3
Format/Info : Audio Coding 3
Commercial name : Dolby Digital
Codec ID : A_AC3
Duration : 1 h 15 min
Bit rate mode : Constant
Bit rate : 448 kb/s
Channel(s) : 6 channels
Channel layout : L R C LFE Ls Rs
Sampling rate : 48.0 kHz
Frame rate : 31.250 FPS (1536 SPF)
Bit depth : 16 bits
Compression mode : Lossy
Stream size : 241 MiB (17%)
Title : Original
Language : English
Service kind : Complete Main
Default : No
Forced : No

Text
ID : 4
Format : UTF-8
Codec ID : S_TEXT/UTF8
Codec ID/Info : UTF-8 Plain Text
Duration : 1 h 8 min
Bit rate : 55 b/s
Count of elements : 925
Stream size : 27.8 KiB (0%)
Title : Full
Language : English
Default : No
Forced : No

Menu
00:00:00.000 : en:Chapter 01
00:04:00.323 : en:Chapter 02
00:04:33.273 : en:Chapter 03
00:09:56.345 : en:Chapter 04
00:16:45.421 : en:Chapter 05
00:20:52.209 : en:Chapter 06
00:23:55.225 : en:Chapter 07
00:25:54.427 : en:Chapter 08
00:28:19.698 : en:Chapter 09
00:32:50.510 : en:Chapter 10
00:35:40.680 : en:Chapter 11
00:37:27.245 : en:Chapter 12
00:44:28.123 : en:Chapter 13
00:46:24.907 : en:Chapter 14
00:52:59.426 : en:Chapter 15
01:00:07.562 : en:Chapter 16
01:02:18.192 : en:Chapter 17
01:05:49.695 : en:Chapter 18
01:08:58.717 : en:Chapter 19
Скріншоти:


Придбання, синхронізація: sergiyko


Срібний реліз (на рейтинг впливає 50% завантаженого)
 Трекер:    Зареєстрований   

Завантажити / скачати мультфільм українською



відео для новачків



 Зареєстрований:   2019-10-19 17:42
 Розмір:   1.36 GB 
 Оцінка мультфільму:   9.6/10 (Голосів: 19)
   
Ваш часовий пояс: GMT + 2 Години

Нова тема   Відповісти