Русалонька. Дитинство Аріель / The Little Mermaid: Ariel's Beginning (2008) AVC Ukr/Eng | sub Eng

Нові коментарі

Нова тема   Відповісти
Автор Повідомлення
sergiyko.5 
VIP


З нами з: 25.02.16
Востаннє: 02.04.20
Повідомлень: 3016

2019-10-19 18:33  


Русалонька. Дитинство Аріель / The Little Mermaid: Ariel's Beginning (2008) AVC Ukr/Eng | sub Eng

Русалонька. Дитинство Аріель / The Little Mermaid: Ariel's Beginning (2008) AVC Ukr/Eng | sub Eng

Жанр: мюзікл, фентезі, драма
Країна: США
Кінокомпанія: Disneytoon Studios
Режисер: Пеггі Холмс

Сюжет:
Дія мультика відбувається в ті давні часи, коли Аріель ще не зустріла своє справжнє кохання Еріка. Музичні інструменти і заняття музикою були заборонені в підводному королівстві. Юну русалоньку це дуже засмучувало, адже вона була змушена або порушити правила, або покинути своє улюблене заняття.




Тривалість: 01:17:31
Якість:

Відео: кодек: розмір кадру: 1024 x 576 бітрейт: 1800 кб/с
Аудіо # 1: мова: українська переклад: професійний дубльований кодек: 2.0 бітрейт: 192 кб/с
Аудіо # 2: мова: англійська переклад: оригінал кодек: 5.1 бітрейт: 384 кб/с
Субтитри: мова: англійська тип: програмні (м'які) формат: *.srt
Про файл:
General
Unique ID : 280627135999644821857683200799348253520 (0xD31ED2088C54020FDD5A7F7C4C4E6350)
Complete name : D:\Documents\Torrents\MULT\The Little Mermaid.Ariel's Beginning.2008.AVC.
Format :
Format version : Version 4
File size : 1.32 GiB
Duration : 1 h 17 min
Overall bit rate mode : Variable
Overall bit rate : 2 436 kb/s
Movie name : The Little Mermaid. Ariel's Beginning 2008 by sergiyko
Encoded date : UTC 2019-10-19 15:17:09
Writing application : v36.0.0 ('Is That Jazz?') 64-bit
Writing library : libebml v1.3.9 + v1.5.2
Cover : Yes
Attachments : cover.jpeg

Video
ID : 1
Format : AVC
Format/Info : Advanced Video Codec
Format profile : [email protected]
Format settings : CABAC / 10 Ref Frames
Format settings, CABAC : Yes
Format settings, Reference fra : 10 frames
Codec ID : V_MPEG4/ISO/AVC
Duration : 1 h 17 min
Bit rate mode : Variable
Bit rate : 1 795 kb/s
Maximum bit rate : 40.0 Mb/s
Width : 1 024 pixels
Height : 576 pixels
Display aspect ratio : 16:9
Frame rate mode : Constant
Frame rate : 23.976 (24000/1001) FPS
Color space : YUV
Chroma subsampling : 4:2:0
Bit depth : 8 bits
Scan type : Progressive
Bits/(Pixel*Frame) : 0.127
Stream size : 996 MiB (74%)
Title : The Little Mermaid.Ariel's Beginning.2008
Writing library : core 133 r2334 a3ac64b
Encoding settings : cabac=1 / ref=10 / deblock=1:-2:-1 / analyse=0x3:0x133 / me=umh / subme=11 / psy=1 / psy_rd=0.80:0.00 / mixed_ref=1 / me_range=48 / chroma_me=1 / trellis=2 / 8x8dct=1 / cqm=0 / deadzone=21,11 / fast_pskip=0 / chroma_qp_offset=-2 / threads=6 / lookahead_threads=1 / sliced_threads=0 / nr=0 / decimate=0 / interlaced=0 / bluray_compat=0 / constrained_intra=0 / bframes=11 / b_pyramid=2 / b_adapt=2 / b_bias=0 / direct=3 / weightb=1 / open_gop=0 / weightp=2 / keyint=240 / keyint_min=24 / scenecut=40 / intra_refresh=0 / rc_lookahead=60 / rc=2pass / mbtree=0 / bitrate=1795 / ratetol=1.0 / qcomp=0.70 / qpmin=0 / qpmax=69 / qpstep=4 / cplxblur=20.0 / qblur=0.5 / vbv_maxrate=50000 / vbv_bufsize=62500 / nal_hrd=none / ip_ratio=1.30 / pb_ratio=1.20 / aq=1:0.
Language : English
Default : Yes
Forced : No

Audio #1
ID : 2
Format : AC-3
Format/Info : Audio Coding 3
Commercial name : Dolby Digital
Codec ID : A_AC3
Duration : 1 h 17 min
Bit rate mode : Constant
Bit rate : 192 kb/s
Channel(s) : 2 channels
Channel layout : L R
Sampling rate : 48.0 kHz
Frame rate : 31.250 FPS (1536 SPF)
Bit depth : 16 bits
Compression mode : Lossy
Stream size : 107 MiB (8%)
Title : DUB 2.0ch
Language : Ukrainian
Service kind : Complete Main
Default : Yes
Forced : Yes

Audio #2
ID : 3
Format : AC-3
Format/Info : Audio Coding 3
Commercial name : Dolby Digital
Codec ID : A_AC3
Duration : 1 h 17 min
Bit rate mode : Constant
Bit rate : 448 kb/s
Channel(s) : 6 channels
Channel layout : L R C LFE Ls Rs
Sampling rate : 48.0 kHz
Frame rate : 31.250 FPS (1536 SPF)
Bit depth : 16 bits
Compression mode : Lossy
Stream size : 249 MiB (18%)
Title : Original
Language : English
Service kind : Complete Main
Default : No
Forced : No

Text
ID : 4
Format : UTF-8
Codec ID : S_TEXT/UTF8
Codec ID/Info : UTF-8 Plain Text
Duration : 1 h 9 min
Bit rate : 52 b/s
Count of elements : 896
Stream size : 26.7 KiB (0%)
Language : English
Default : No
Forced : No

Menu
00:00:00.000 : en:Chapter 01
00:02:42.745 : en:Chapter 02
00:05:40.214 : en:Chapter 03
00:10:02.643 : en:Chapter 04
00:15:24.256 : en:Chapter 05
00:19:06.061 : en:Chapter 06
00:24:00.272 : en:Chapter 07
00:26:22.664 : en:Chapter 08
00:29:00.029 : en:Chapter 09
00:33:38.891 : en:Chapter 10
00:37:39.215 : en:Chapter 11
00:41:25.107 : en:Chapter 12
00:44:33.504 : en:Chapter 13
00:48:04.548 : en:Chapter 14
00:52:25.433 : en:Chapter 15
00:55:21.776 : en:Chapter 16
01:00:26.622 : en:Chapter 17
01:04:42.753 : en:Chapter 18
01:06:58.013 : en:Chapter 19
01:09:24.702 : en:Chapter 20
01:10:43.238 : en:Chapter 21
Скріншоти:


Придбання, синхронізація: sergiyko


 Трекер:    Зареєстрований   

Завантажити / скачати мультфільм українською



відео для новачків



 Зареєстрований:   2019-10-19 18:33
 Розмір:   1.32 GB 
 Оцінка мультфільму:   10/10 (Голосів: 17)
   
Ваш часовий пояс: GMT + 2 Години

Нова тема   Відповісти