Пригоди Вінні Пуха / The Many Adventures of Winnie the Pooh (1977) 720p Ukr/Eng | Sub Eng

Нові коментарі

Нова тема   Відповісти
Автор Повідомлення
sergiyko.5 
Забанено
Забанено


З нами з: 25.02.16
Востаннє: 29.10.20
Повідомлень: 3648

2019-10-19 11:57  
Всі одноіменні релізи на трекері

Пригоди Вінні Пуха / The Many Adventures of Winnie the Pooh (1977) 720p Ukr/Eng | Sub Eng


Пригоди Вінні Пуха / The Many Adventures of Winnie the Pooh (1977) 720p Ukr/Eng | Sub Eng

Жанр: мюзікл, комедія
Країна: США
Режисер: Джон Лоунсбері, Вольфганг Райтерман

Режисер дубляжу: Алла Пасікова
Музичний редактор: Тетяна Піроженко
Перекладач: Роман Дяченко
Автор синхронного тексту: Роман Дяченко
Перекладач пісень: Роман Дяченко
Звукорежисер: Михайло Угрин
Звукорежисери перезапису: Всеволод Солнцев, Михайло Угрин
Творчий консультант: Александра Яніковськ

Ролі дублювали: Вінні - Дмитро Завадський, Поросятко - Євген Малуха, Тигрик - Юрій Коваленко, Кролик - Микола Луценко, Віслючок - Олександр Ігнатуша, Крістофер Робін - Єгор Олрлов, Сова - Євген Лунченко, Кенга - Лариса Русняк, Ру - Олексій Сморігін, Оповідач - Василь Мазур, Ховрах - Георгій Ковальонок, співачка - Валентина Скорнякова, співачка - Тетяна Піроженко, співак - Сергій Юрченко, співак - Євген Анишко


Сюжет:
Вінні Пух - герой дітей багатьох поколінь. Вигаданий Олександром Мілном, ведмедик пережив багато втілень. Найближчою до оригіналу є версія студії Дісней. Глядачі можуть насолоджуватися пригодами Вінні та його друзів, створеними найкращими мультиплікаторами.




Тривалість: 01:13:59
Якість:

Відео: кодек: розмір кадру: 1194 х 720 бітрейт: 3200 кб/с
Аудіо # 1: мова: українська озвучення: професійне дубльоване кодек: 5.1 бітрейт: 384 кб/с | Le Doyen |
Аудіо # 2: мова: англійська озвучення: оригінал кодек: 5.1 бітрейт: 640 кб/с
Субтитри: мова: англійська тип: програмні (м'які) формат: *.srt
Про файл:
General
Unique ID : 120731076150857177115983804602354602647 (0x5AD3F5A054AC453A3BC9B75ED3499297)
Complete name : D:\Documents\Torrents\FILMS\The.Many.Adventures.of.Winnie.the.Pooh.1977.720p..Ukr.Eng.
Format :
Format version : Version 4
File size : 2.19 GiB
Duration : 1 h 14 min
Overall bit rate : 4 239 kb/s
Movie name : The Many Adventures of Winnie the Pooh 1977 by sergiyko
Encoded date : UTC 2020-08-20 06:41:08
Writing application : v47.0.0 ('Black Flag') 64-bit
Writing library : libebml v1.3.10 + v1.5.2
Cover : Yes
Attachments : cover.jpeg

Video
ID : 1
Format : AVC
Format/Info : Advanced Video Codec
Format profile : [email protected]
Format settings : CABAC / 9 Ref Frames
Format settings, CABAC : Yes
Format settings, Reference : 9 frames
Codec ID : V_MPEG4/ISO/AVC
Duration : 1 h 13 min
Bit rate : 3 219 kb/s
Width : 1 194 pixels
Height : 720 pixels
Display aspect ratio : 5:3
Frame rate mode : Constant
Frame rate : 23.976 (24000/1001) FPS
Color space : YUV
Chroma subsampling : 4:2:0
Bit depth : 8 bits
Scan type : Progressive
Bits/(Pixel*Frame) : 0.156
Stream size : 1.66 GiB (76%)
Title : The Many Adventures of Winnie the Pooh 1977
Writing library : core 130 r2273kMod b3065e6
Encoding settings : cabac=1 / ref=9 / deblock=1:-1:-1 / analyse=0x3:0x113 / me=umh / subme=11 / psy=1 / fade_compensate=0.00 / psy_rd=1.00:0.00 / mixed_ref=1 / me_range=32 / chroma_me=1 / trellis=2 / 8x8dct=1 / cqm=0 / deadzone=21,11 / fast_pskip=0 / chroma_qp_offset=-2 / threads=6 / lookahead_threads=1 / sliced_threads=0 / nr=0 / decimate=1 / interlaced=0 / bluray_compat=0 / constrained_intra=0 / bframes=10 / b_pyramid=2 / b_adapt=2 / b_bias=0 / direct=1 / weightb=1 / open_gop=0 / weightp=2 / keyint=250 / keyint_min=23 / scenecut=40 / intra_refresh=0 / rc_lookahead=70 / rc=crf / mbtree=0 / crf=16.5000 / qcomp=0.60 / qpmin=0 / qpmax=69 / qpstep=4 / vbv_maxrate=50000 / vbv_bufsize=62500 / crf_max=0.0 / nal_hrd=none / ip_ratio=1.40 / pb_ratio=1.30 / aq=1:1.00
Language : English
Default : Yes
Forced : No
Color range : Limited
Color primaries : BT.709
Transfer characteristics : BT.709
Matrix coefficients : BT.709

Audio #1
ID : 2
Format : AC-3
Format/Info : Audio Coding 3
Commercial name : Dolby Digital
Codec ID : A_AC3
Duration : 1 h 14 min
Bit rate mode : Constant
Bit rate : 384 kb/s
Channel(s) : 6 channels
Channel layout : L R C LFE Ls Rs
Sampling rate : 48.0 kHz
Frame rate : 31.250 FPS (1536 SPF)
Compression mode : Lossy
Stream size : 204 MiB (9%)
Title : DUB 5.1ch | Le Doyen
Language : Ukrainian
Service kind : Complete Main
Default : Yes
Forced : Yes

Audio #2
ID : 3
Format : AC-3
Format/Info : Audio Coding 3
Commercial name : Dolby Digital
Codec ID : A_AC3
Duration : 1 h 14 min
Bit rate mode : Constant
Bit rate : 640 kb/s
Channel(s) : 6 channels
Channel layout : L R C LFE Ls Rs
Sampling rate : 48.0 kHz
Frame rate : 31.250 FPS (1536 SPF)
Compression mode : Lossy
Stream size : 339 MiB (15%)
Title : Original
Language : English
Service kind : Complete Main
Default : No
Forced : No

Text #1
ID : 4
Format : UTF-8
Codec ID : S_TEXT/UTF8
Codec ID/Info : UTF-8 Plain Text
Duration : 1 h 12 min
Bit rate : 61 b/s
Count of elements : 926
Stream size : 32.5 KiB (0%)
Title : Full
Language : English
Default : No
Forced : No

Text #2
ID : 5
Format : UTF-8
Codec ID : S_TEXT/UTF8
Codec ID/Info : UTF-8 Plain Text
Duration : 1 h 12 min
Bit rate : 14 b/s
Count of elements : 152
Stream size : 7.84 KiB (0%)
Title : Pooh's Pop-Up Fun Facts
Language : English
Default : No
Forced : No

Menu
00:00:00.000 : 01. Open Credits / "Winnie the Pooh"
00:03:14.360 : 02. Winnie the Pooh and the Honey Tree
00:04:04.243 : 03. "Up, Down, Touch the Ground"
00:05:59.734 : 04. "Rumbly in My Tumbly"
00:07:38.332 : 05. "Little Black Rain Cloud"
00:13:47.827 : 06. Pooh Pays a Visit to Rabbit
00:16:43.585 : 07. Owl Tries to Help
00:19:14.319 : 08. Pooh Remains Stuck
00:23:37.541 : 09. Today Is the Day!
00:25:49.714 : 10. Winnie the Pooh and the Blustery Day
00:30:10.892 : 11. Piglet and Pooh Visit Owl
00:33:02.480 : 12. A Blustery Night and a New Arrival
00:36:36.569 : 13. "The Wonderful Thing About Tiggers"
00:36:51.709 : 14. "Heffalumps and Woozles"
00:41:20.311 : 15. "The Rain, Rain, Rain, Came Down, Down, Down"
00:45:12.000 : 16. A Hero Party ("Hip Hooray for Winnie the Pooh")
00:49:33.720 : 17. Winnie the Pooh and Tigger Too
00:55:36.958 : 18. Lost!
01:00:29.125 : 19. The First Snowfall
01:04:10.972 : 20. Pooh Is Having a Problem
01:11:35.749 : 21. The Final Chapter
Скріншоти:


Придбання, синхронізація: sergiyko


Срібний реліз (на рейтинг впливає 50% завантаженого)
 Трекер:    Зареєстрований   

Завантажити / скачати мультфільм українською



відео для новачків



 Зареєстрований:   2020-08-20 08:47
 Розмір:   2.19 GB 
 Оцінка мультфільму:   10/10 (Голосів: 20)
   
simps 
Новенький


З нами з: 28.06.15
Востаннє: 27.02.21
Повідомлень: 10

2019-10-19 17:18  
Хтось має інформацію про кастинг?
sergiyko.5 
Забанено
Забанено


З нами з: 25.02.16
Востаннє: 29.10.20
Повідомлень: 3648

2020-08-20 08:48  
Торент оновлено, українська доріжка має тепер 5.1 каналів.
Ваш часовий пояс: GMT + 2 Години

Нова тема   Відповісти