Робін Гуд / Robin Hood (1973) AVC

Нові коментарі

Нова тема   Відповісти
Автор Повідомлення
sergiyko.5 
VIP


З нами з: 25.02.16
Востаннє: 21.10.20
Повідомлень: 3602

2019-10-19 12:45  
Всі одноіменні релізи на трекері

Робін Гуд / Robin Hood (1973) AVC


Робін Гуд / Robin Hood (1973) AVC

Жанр: мелодрама, комедія, пригоди
Країна: США
Режисер: Вольфганг Райтерман

Сюжет:
Ласкаво просимо в дрімучий Шервудський ліс, де ти зустрінеш хоробре й забавне лисеня на ім’я Робін Гуд і його кращого друга Крихітку Джона - великого добродушного ведмедя. Цю веселу компанію давно розшукує шериф Нотінгема. Він готує друзям пастку: на турнірі лучників Робін Гуда буде чекати засідка. Але відважне лисеня все одно збирається брати участь у змаганні: адже тільки там у нього є шанс побачити красуню Маріан. І ось турнір почався, однак шериф ніяк не може впізнати серед учасників переодягненого Робін Гуда. Правда, один точний постріл здатний відразу видати найкращого стрільця в королівстві.




Тривалість: 01:23:02
Якість:

Відео: кодек: розмір кадру: 1024 х 616 бітрейт: 2300 кб/с
Аудіо: мова: українська переклад: професійний дубльований кодек: 2.0 бітрейт: 192 кб/с
Про файл:
General
Unique ID : 136665164728019469384843286513530467956 (0x66D0C0D8F3CF9396C1E1A7FB5EFC7674)
Complete name : D:\Documents\Torrents\MULT\Robin.Hood.1973..
Format :
Format version : Version 4
File size : 1.48 GiB
Duration : 1 h 23 min
Overall bit rate : 2 548 kb/s
Movie name : Robin Hood 1973 by sergiyko
Encoded date : UTC 2019-10-19 09:31:40
Writing application : v36.0.0 ('Is That Jazz?') 64-bit
Writing library : libebml v1.3.9 + v1.5.2
Cover : Yes
Attachments : cover.jpeg

Video
ID : 1
Format : AVC
Format/Info : Advanced Video Codec
Format profile : [email protected]
Format settings : CABAC / 14 Ref Frames
Format settings, CABAC : Yes
Format settings, Reference : 14 frames
Codec ID : V_MPEG4/ISO/AVC
Duration : 1 h 23 min
Bit rate : 2 354 kb/s
Width : 1 024 pixels
Height : 616 pixels
Display aspect ratio : 5:3
Frame rate mode : Constant
Frame rate : 23.976 FPS
Color space : YUV
Chroma subsampling : 4:2:0
Bit depth : 8 bits
Scan type : Progressive
Bits/(Pixel*Frame) : 0.156
Stream size : 1.37 GiB (92%)
Title : Robin Hood 1973
Writing library : core 157 r2969 d4099dd
Encoding settings : cabac=1 / ref=14 / deblock=1:0:0 / analyse=0x3:0x133 / me=umh / subme=10 / psy=1 / psy_rd=0.40:0.00 / mixed_ref=1 / me_range=24 / chroma_me=1 / trellis=2 / 8x8dct=1 / cqm=0 / deadzone=21,11 / fast_pskip=1 / chroma_qp_offset=-2 / threads=19 / lookahead_threads=4 / sliced_threads=0 / nr=0 / decimate=1 / interlaced=0 / bluray_compat=0 / constrained_intra=0 / bframes=10 / b_pyramid=2 / b_adapt=2 / b_bias=0 / direct=3 / weightb=1 / open_gop=0 / weightp=2 / keyint=250 / keyint_min=23 / scenecut=40 / intra_refresh=0 / rc_lookahead=60 / rc=2pass / mbtree=1 / bitrate=2354 / ratetol=1.0 / qcomp=0.70 / qpmin=0 / qpmax=69 / qpstep=4 / cplxblur=20.0 / qblur=0.5 / ip_ratio=1.40 / aq=1:0.60
Language : English
Default : Yes
Forced : No

Audio
ID : 2
Format : AC-3
Format/Info : Audio Coding 3
Commercial name : Dolby Digital
Codec ID : A_AC3
Duration : 1 h 23 min
Bit rate mode : Constant
Bit rate : 192 kb/s
Channel(s) : 2 channels
Channel layout : L R
Sampling rate : 48.0 kHz
Frame rate : 31.250 FPS (1536 SPF)
Bit depth : 16 bits
Compression mode : Lossy
Stream size : 114 MiB (8%)
Title : DUB 2.0ch
Language : Ukrainian
Service kind : Complete Main
Default : Yes
Forced : No

Menu
00:00:00.000 : en:00:00:00.000
00:03:31.962 : en:00:03:31.962
00:09:10.133 : en:00:09:10.133
00:15:09.617 : en:00:15:09.617
00:20:57.089 : en:00:20:57.089
00:27:01.537 : en:00:27:01.537
00:31:22.172 : en:00:31:22.172
00:37:40.049 : en:00:37:40.049
00:42:00.351 : en:00:42:00.351
00:48:57.643 : en:00:48:57.643
00:51:08.983 : en:00:51:08.983
00:55:10.432 : en:00:55:10.432
01:03:05.198 : en:01:03:05.198
01:05:22.001 : en:01:05:22.001
01:20:30.743 : en:01:20:30.743
Скріншоти:


Придбання, синхронізація: sergiyko


Срібний реліз (на рейтинг впливає 50% завантаженого)
 Трекер:    Зареєстрований   

Завантажити / скачати мультфільм українською



відео для новачків



 Зареєстрований:   2019-10-19 12:45
 Розмір:   1.48 GB 
 Оцінка мультфільму:   9.9/10 (Голосів: 30)
   
Інші релізи
   Робін Гуд / Robin Hood (1973) 1080p H.265 3xUkr/Eng | Sub Ukr/Eng -Star-Lord-  8 / 0   4.85 GB   2020-03-04 10:27 
   Робін Гуд / Robin Hood (1973) 1080p Ukr/Eng | Sub Eng sergiyko.5  0 / 0   10.08 GB   2019-10-19 12:52 
   Робін Гуд / Robin Hood (1973) 720p Ukr/Eng | Sub Eng sergiyko.5  5 / 0   5 GB   2019-10-18 21:40 
   Робін Гуд / Robin Hood (1973) 720p Ukr/Eng | sub Eng радик  5 / 0   4.11 GB   2018-05-16 15:27 
MutuLI 
Відео Гуртом - фільмокрай
Відео Гуртом - фільмокрай


З нами з: 08.03.09
Востаннє: 21.10.20
Повідомлень: 1960

2019-10-19 17:22  
Супер, ще один мульт в колекцію.
игорь 25 
Свій


З нами з: 02.10.17
Востаннє: 21.10.20
Повідомлень: 111

2019-10-19 19:19  
Дякую. А які мульти ще плануються в дубляжі з старого?
sergiyko.5 
VIP


З нами з: 25.02.16
Востаннє: 21.10.20
Повідомлень: 3602

2019-10-19 19:22  
MutuLI 
Відео Гуртом - фільмокрай
Відео Гуртом - фільмокрай


З нами з: 08.03.09
Востаннє: 21.10.20
Повідомлень: 1960

2020-02-28 10:46  
Є ще одна доріжка для цього мульфільму.
переклад: багатоголосий закадровий (любительський) Клан Кайзоку
Озвучували: Василь Ті, Бітарі, Дракул, Реніко, Мелорін, Широ, Солмарін, Веселий Роджер та Локі. Робота зі звуком: Клан Кайзоку. На замовлення Шева 777.
http://dorizhky.hurtom.com/Robin%20Hood.%281973%29.01h23m01s.%5BMVO%5D%5B2.0-192%5D.23%2C976fps.%5Bclan_kaizoku%5D.

та українські субтитри з DVD
http://dorizhky.hurtom.com/SUBTITLES%20UKR/Robin%20Hood.%281973%29.01h23m01s.23.976fps.%5BDVD%5D%5BHurtom-MutuLI%5D.srt

Ваш часовий пояс: GMT + 2 Години

Нова тема   Відповісти