Тремтіння землі 5: Кровна рідня / Tremors 5: Bloodlines (2015) Remux 1080p 2хUkr/Eng | Sub Eng

Нові коментарі

Нова тема   Відповісти
Автор Повідомлення
MakRA 
VIP


З нами з: 11.11.18
Востаннє: 18.09.20
Повідомлень: 1111

2019-10-19 10:07  
Тремтіння землі 5: Кровна рідня / Tremors 5: Bloodlines (2015) Remux 1080p 2хUkr/Eng | Sub Eng

Тремтіння землі 5: Кровна рідня / Tremors 5: Bloodlines (2015) Remux 1080p 2хUkr/Eng | Sub Eng


Жанр: екшн, пригодницький, комедія
Країна: США



Кінокомпанія: Universal PicturesUniversal 1440 Entertainment
Режисер: Дон Майкл Пол [Don Michael Paul]
Актори: Майкл Гросс [Michael Gross], Джеймі Кеннеді [Jamie Kennedy], Ернест Ндлову [Ernest Ndlovu], Лоуренс Джофф [Lawrence Joffe], Зак Хендрікз [Zak Hendrikz], Наталі Бекер [Natalie Becker], Еммануель Кастіс [Emmanuel Castis], Брендон Оре [Brandon Auret], Деніел Дженкс [Daniel Janks]

Сюжет:
Продовження неймовірно трешового хоррору про величезних черв’яків, що харчуються мешканцями американської глибинки. Щоправда, тепер події переносяться до Південної Африки.
До Берта Граммера звертається міністр охорони природи Південної Африки Ерік Ван Вік, який просить Берта знайти вполювати величезного монстра, що раптово з'явився в Африці і вже почав вбивати людей. Здивувавшись цій новині, ветеран полювання на хробаків-людожерів відправляється в Африку, хватає із собою новоспеченого оператора Тревіса, щоб знову повоювати з тваринами, які тепер сильно мутували і стали більш непередбачуваними…


Тривалість: 01:38:55
Якість: Remux 1080p
Відео:
кодек:
розмір кадру: 1920 х 1080
бітрейт: 31,6 Mб/с

Аудіо # 1:
мова: українська
переклад: багатоголосий закадровий
кодек: 2.0
бітрейт: 192 кб/с
назву перекладено як: "Тремтіння землі 5: Кровна спорідненість"

Аудіо # 2:
мова: українська
переклад: багатоголосий закадровий
кодек: 2.0
бітрейт: 192 кб/с
назву перекладено як: "Тремтіння землі 5: Кровна рідня"

Аудіо # 3:
мова: англійська
переклад: оригінал
кодек: -HD MA 5.1
бітрейт: 4312 кб/с

Субтитри: (SDH)
мова: англійська
тип: пререндерні
формат: *.pgs
Info
General
Unique ID : 76563410470572511369145064387353423102 (0x39999394A6651014CE4D61E48246ACFE)
Complete name : N:\+ Фільми в HD\Жахи, комедії\Tremors. Collection Remux 1080p\Tremors 5 Bloodlines (2015) Remux 1080p 2хUkrEng Sub Eng [Hurtom].
Format :
Format version : Version 4
File size : 25.1 GiB
Duration : 1 h 38 min
Overall bit rate mode : Variable
Overall bit rate : 36.3 Mb/s
Movie name : Тремтіння землі 5: Кровна рідня / Tremors 5: Bloodlines (2015) Remux 1080p 2хUkr/Eng | Sub Eng [Hurtom]
Encoded date : UTC 2019-10-18 20:30:11
Writing application : v25.0.0 ('Prog Noir') 64-bit
Writing library : libebml v1.3.6 + v1.4.9
Cover : Yes
Attachments : cover.jpg

Video
ID : 1
Format : AVC
Format/Info : Advanced Video Codec
Format profile : [email protected]
Format settings : CABAC / 4 Ref Frames
Format settings, CABAC : Yes
Format settings, Reference fra : 4 frames
Format settings, GOP : M=3, N=12
Codec ID : V_MPEG4/ISO/AVC
Duration : 1 h 38 min
Bit rate mode : Variable
Bit rate : 31.6 Mb/s
Maximum bit rate : 35.0 Mb/s
Width : 1 920 pixels
Height : 1 080 pixels
Display aspect ratio : 16:9
Frame rate mode : Constant
Frame rate : 23.976 (24000/1001) FPS
Color space : YUV
Chroma subsampling : 4:2:0
Bit depth : 8 bits
Scan type : Progressive
Bits/(Pixel*Frame) : 0.636
Stream size : 21.9 GiB (87%)
Title : Tremors 5: Bloodlines (2015) Remux 1080p 2хUkr/Eng | Sub Eng [Hurtom]
Language : Ukrainian
Default : Yes
Forced : Yes

Audio #1
ID : 2
Format : AC-3
Format/Info : Audio Coding 3
Commercial name : Dolby Digital
Codec ID : A_AC3
Duration : 1 h 38 min
Bit rate mode : Constant
Bit rate : 192 kb/s
Channel(s) : 2 channels
Channel layout : L R
Sampling rate : 48.0 kHz
Frame rate : 31.250 FPS (1536 SPF)
Bit depth : 16 bits
Compression mode : Lossy
Stream size : 136 MiB (1%)
Title : MVO [NLO.TV] 2.0
Language : Ukrainian
Service kind : Complete Main
Default : Yes
Forced : Yes

Audio #2
ID : 3
Format : AC-3
Format/Info : Audio Coding 3
Commercial name : Dolby Digital
Codec ID : A_AC3
Duration : 1 h 38 min
Bit rate mode : Constant
Bit rate : 192 kb/s
Channel(s) : 2 channels
Channel layout : L R
Sampling rate : 48.0 kHz
Frame rate : 31.250 FPS (1536 SPF)
Bit depth : 16 bits
Compression mode : Lossy
Stream size : 136 MiB (1%)
Title : MVO [ICTV] 2.0
Language : Ukrainian
Service kind : Complete Main
Default : No
Forced : No

Audio #3
ID : 4
Format : XLL
Format/Info : Digital Theater Systems
Commercial name : -HD Master Audio
Codec ID : A_DTS
Duration : 1 h 38 min
Bit rate mode : Variable
Bit rate : 4 312 kb/s
Channel(s) : 6 channels
Channel layout : C L R Ls Rs LFE
Sampling rate : 48.0 kHz
Frame rate : 93.750 FPS (512 SPF)
Bit depth : 24 bits
Compression mode : Lossless
Stream size : 2.98 GiB (12%)
Title : Original -HD MA 5.1
Language : English
Default : No
Forced : No

Text
ID : 5
Format : PGS
Muxing mode : zlib
Codec ID : S_HDMV/PGS
Codec ID/Info : Picture based subtitle format used on BDs/HD-DVDs
Duration : 1 h 35 min
Bit rate : 36.4 kb/s
Count of elements : 2659
Stream size : 24.8 MiB (0%)
Title : Eng (SDH)
Language : English
Default : No
Forced : No
Скріншоти
Джерело: &
Подяка п. slavik_v_z,п. Neytreenor за запис звуку, та п. krigg070 за синхронізацію.
Особиста оцінка: 8 - мені сподобалося


Золотий реліз (завантажене не впливає на рейтинг)
 Трекер:    Зареєстрований   

Завантажити / скачати фільм українською



відео для новачків



 Зареєстрований:   2019-10-19 10:07
 Розмір:   25.12 GB 
 Оцінка фільму:   9.8/10 (Голосів: 8)
   
Blanove 
Поважний учасник


З нами з: 01.05.15
Востаннє: 14.09.20
Повідомлень: 153

2019-11-05 21:56  
Круть, в якості нарешті, скоріш би шосту озвучили
Ваш часовий пояс: GMT + 2 Години

Нова тема   Відповісти