Русалонька 2. Повернення до моря / The Little Mermaid II: Return to the Sea (2000) 1080p Ukr/Eng | sub Eng

Нові коментарі

Нова тема   Відповісти
Автор Повідомлення
sergiyko.5 
Забанено
Забанено


З нами з: 25.02.16
Востаннє: 29.10.20
Повідомлень: 3648

2019-10-18 23:38  
Всі одноіменні релізи на трекері

Русалонька 2. Повернення до моря / The Little Mermaid II: Return to the Sea (2000) 1080p Ukr/Eng | sub Eng


Русалонька 2. Повернення до моря / The Little Mermaid II: Return to the Sea (2000) 1080p Ukr/Eng | sub Eng

Жанр: мюзікл, фентезі, драма
Країна: США
Кінокомпанія: Disney Studios
Режисер: Джим Кеммерад

Сюжет:
Дочка Аріель і принца Еріка, Мелоді, уже подорослішала, але її невблаганно вабить море. І, не дивлячись на всі зусилля її батьків, дівчинка все ж тікає в такий улюблений для неї світ. Там юна русалка зустрічає відьму Моргану, не менше підступну, ніж її сестра Урсула. Чи зможе Мелоді стати на перешкоді хитрого плану лиходійки і врятувати Атлантику?




Тривалість: 01:15:12
Якість:

Відео: кодек: розмір кадру: 1920 x 1080 бітрейт: 7280 кб/с
Аудіо # 1: мова: українська переклад: професійний дубльований кодек: 2.0 бітрейт: 192 кб/с
Аудіо # 2: мова: англійська переклад: оригінал кодек: 5.1 бітрейт: 384 кб/с
Субтитри: мова: англійська тип: програмні формат: *.pgs
Про файл:
General
Unique ID : 263287848280939012549583541274306584552 (0xC613652541EBBF3452D49C1432C69FE8)
Complete name : D:\Documents\Torrents\MULT\The Little Mermaid II.Return to the Sea.2000.1080p..Ukr.Eng.
Format :
Format version : Version 4
File size : 4.16 GiB
Duration : 1 h 15 min
Overall bit rate : 7 926 kb/s
Movie name : The Little Mermaid II. Return to the Sea 2000 1080p by sergiyko
Encoded date : UTC 2019-10-21 08:59:58
Writing application : v36.0.0 ('Is That Jazz?') 64-bit
Writing library : libebml v1.3.9 + v1.5.2
Cover : Yes
Attachments : cover.jpeg

Video
ID : 1
Format : AVC
Format/Info : Advanced Video Codec
Format profile : [email protected]
Format settings : CABAC / 7 Ref Frames
Format settings, CABAC : Yes
Format settings, Reference : 7 frames
Codec ID : V_MPEG4/ISO/AVC
Duration : 1 h 15 min
Bit rate : 7 280 kb/s
Width : 1 920 pixels
Height : 1 080 pixels
Display aspect ratio : 16:9
Frame rate mode : Constant
Frame rate : 23.976 (24000/1001) FPS
Color space : YUV
Chroma subsampling : 4:2:0
Bit depth : 8 bits
Scan type : Progressive
Bits/(Pixel*Frame) : 0.146
Stream size : 3.83 GiB (92%)
Writing library : core 157 r2969 d4099dd
Encoding settings : cabac=1 / ref=7 / deblock=1:-1:-1 / analyse=0x3:0x133 / me=umh / subme=9 / psy=1 / psy_rd=0.40:0.00 / mixed_ref=1 / me_range=24 / chroma_me=1 / trellis=2 / 8x8dct=1 / cqm=0 / deadzone=21,11 / fast_pskip=1 / chroma_qp_offset=-2 / threads=24 / lookahead_threads=2 / sliced_threads=0 / nr=0 / decimate=1 / interlaced=0 / bluray_compat=0 / constrained_intra=0 / bframes=5 / b_pyramid=2 / b_adapt=2 / b_bias=0 / direct=3 / weightb=1 / open_gop=0 / weightp=2 / keyint=250 / keyint_min=23 / scenecut=40 / intra_refresh=0 / rc_lookahead=60 / rc=2pass / mbtree=1 / bitrate=7280 / ratetol=1.0 / qcomp=0.70 / qpmin=0 / qpmax=69 / qpstep=4 / cplxblur=20.0 / qblur=0.5 / ip_ratio=1.40 / aq=1:0.60
Language : English
Default : Yes
Forced : No

Audio #1
ID : 2
Format : AC-3
Format/Info : Audio Coding 3
Commercial name : Dolby Digital
Codec ID : A_AC3
Duration : 1 h 15 min
Bit rate mode : Constant
Bit rate : 192 kb/s
Channel(s) : 2 channels
Channel layout : L R
Sampling rate : 48.0 kHz
Frame rate : 31.250 FPS (1536 SPF)
Bit depth : 16 bits
Compression mode : Lossy
Stream size : 103 MiB (2%)
Title : DUB 2.0ch
Language : Ukrainian
Service kind : Complete Main
Default : Yes
Forced : Yes

Audio #2
ID : 3
Format : AC-3
Format/Info : Audio Coding 3
Commercial name : Dolby Digital
Codec ID : A_AC3
Duration : 1 h 15 min
Bit rate mode : Constant
Bit rate : 448 kb/s
Channel(s) : 6 channels
Channel layout : L R C LFE Ls Rs
Sampling rate : 48.0 kHz
Frame rate : 31.250 FPS (1536 SPF)
Bit depth : 16 bits
Compression mode : Lossy
Stream size : 241 MiB (6%)
Title : Original
Language : English
Service kind : Complete Main
Default : No
Forced : No

Text
ID : 4
Format : UTF-8
Codec ID : S_TEXT/UTF8
Codec ID/Info : UTF-8 Plain Text
Duration : 1 h 8 min
Bit rate : 72 b/s
Count of elements : 926
Stream size : 36.3 KiB (0%)
Title : Full
Language : Russian
Default : No
Forced : No

Menu
00:00:00.000 : en:Chapter 01
00:04:00.323 : en:Chapter 02
00:04:33.273 : en:Chapter 03
00:09:56.345 : en:Chapter 04
00:16:45.421 : en:Chapter 05
00:20:52.209 : en:Chapter 06
00:23:55.225 : en:Chapter 07
00:25:54.427 : en:Chapter 08
00:28:19.698 : en:Chapter 09
00:32:50.510 : en:Chapter 10
00:35:40.680 : en:Chapter 11
00:37:27.245 : en:Chapter 12
00:44:28.123 : en:Chapter 13
00:46:24.907 : en:Chapter 14
00:52:59.426 : en:Chapter 15
01:00:07.562 : en:Chapter 16
01:02:18.192 : en:Chapter 17
01:05:49.695 : en:Chapter 18
01:08:58.717 : en:Chapter 19
Скріншоти:


Придбання, синхронізація: sergiyko


Срібний реліз (на рейтинг впливає 50% завантаженого)
 Трекер:    Зареєстрований   

Завантажити / скачати мультфільм українською



відео для новачків



 Зареєстрований:   2019-10-21 11:11
 Розмір:   4.16 GB 
 Оцінка мультфільму:   9.8/10 (Голосів: 5)
   
bot 
робот


З нами з: 30.09.07
Востаннє: 26.05.05
Повідомлень: 27369

2019-10-18 23:39  
Тему перенесено з Мультфільми в HD до форуму Анонси релізів


sergiyko.5

dimon-2018 
VIP


З нами з: 06.05.18
Востаннє: 09.03.21
Повідомлень: 580

2019-10-19 08:31  
sergiyko.5
український постер

Dzuski.com 
VIP


З нами з: 08.09.19
Востаннє: 05.03.21
Повідомлень: 365

2019-10-19 09:51  
Стоп... здається я цієї частини ніколи не бачив... Треба глянути.
bot 
робот


З нами з: 30.09.07
Востаннє: 26.05.05
Повідомлень: 27369

2019-10-21 11:11  
Тему перенесено з Анонси релізів до форуму Мультфільми в HD


sergiyko.5

Ваш часовий пояс: GMT + 2 Години

Нова тема   Відповісти