Тисяча слів / A Thousand Words (2012) 1080p 2хUkr/Eng | Sub Eng

Нові коментарі

Нова тема   Відповісти
Автор Повідомлення
Anonymous 







2019-10-18 21:30  
Тисяча слів / A Thousand Words (2012) 1080p 2хUkr/Eng | Sub Eng

Тисяча слів / A Thousand Words (2012) 1080p 2хUkr/Eng | Sub Eng


Жанр: комедія, драма, романтичний
Країна: США



Кінокомпанія: DreamWorks SKG, Saturn Films, Work After Midnight Films
Режисер: Брайан Робінс / Brian Robbins
Актори: Едді Мерфі / Eddie Murphy, Еллісон Дженні / Allison Janney, Аріель Вінтер / Ariel Winter, Керрі Вашинґтон / Kerry Washington, Кліфф Картіс / Cliff Curtis, Кларк Дьюк / Clark Duke, Джон Візерспун / John Witherspoon та інші

Сюжет:
Джек - невмовкаючий літературний агент. Він готовий говорити, говорити, говорити і не зупинятися. Важливий плюс у роботі Джека, адже ніхто не йшов від нього з непідписаним контрактом. Все йшло начебто чудово. Але одного разу Джек зустрів таємничого доктора Сінджа. Не зважаючи на такий талант в роботі, Джеку не вдається підписати з ним контракт. Мало того, загадковий буддист штовхає Джека на важливе випробування в його житті. Одного разу він дізнається, що йому залишилося вимовити вголос рівно тисячу слів, після чого він обов'язково помре ...


Тривалість: 01:31:30
Якість: 1080p
Відео:
кодек:
розмір кадру: 1920х800
бітрейт: 13.5 мб/с

Аудіо # 1:
мова: українська
переклад: багатоголосий закадровий
кодек: 2.0
бітрейт: 192 кб/с

Аудіо # 2:
мова: українська
переклад: багатоголосий закадровий
кодек: 5.1
бітрейт: 384 кб/с

Аудіо # 3:
мова: англійська
переклад: оригінал
кодек: 5.1
бітрейт: 1510 кб/с

Субтитри: (Full)
мова: англійська
тип: програмні (м'які)
формат: *.srt

Збережено оригінальні розділи, як на Blu-ray.
Скріншоти




Info
Код:
General
Complete name                            : A Thousand Words (2012) 1080p [Ukr_Eng] [Video_Hurtom].
Format                                   :
Format version                           : Version 4
File size                                : 9.96 GiB
Duration                                 : 1 h 31 min
Overall bit rate                         : 15.6 Mb/s
Movie name                               : A Thousand Words (2012) 1080p [Ukr_Eng] [Video_Hurtom]
Encoded date                             : UTC 2019-10-18 19:07:42
Writing application                      : v30.1.0 ('Forever And More') 64-bit
Writing library                          : libebml v1.3.6 + v1.4.9
Cover                                    : Yes
Attachments                              : cover.jpg

Video
ID                                       : 1
Format                                   : AVC
Format/Info                              : Advanced Video Codec
Format profile                           : [email protected]
Format settings                          : CABAC / 5 Ref Frames
Format settings, CABAC                   : Yes
Format settings, RefFrames               : 5 frames
Codec ID                                 : V_MPEG4/ISO/AVC
Duration                                 : 1 h 31 min
Bit rate                                 : 13.5 Mb/s
Width                                    : 1 920 pixels
Height                                   : 800 pixels
Display aspect ratio                     : 2.40:1
Frame rate mode                          : Constant
Frame rate                               : 23.976 (24000/1001) FPS
Color space                              : YUV
Chroma subsampling                       : 4:2:0
Bit depth                                : 8 bits
Scan type                                : Progressive
Bits/(Pixel*Frame)                       : 0.367
Stream size                              : 8.62 GiB (87%)
Writing library                          : core 116 r2057 0ba8a9c
Encoding settings                        : cabac=1 / ref=5 / deblock=1:-3:-3 / analyse=0x3:0x133 / me=umh / subme=10 / psy=1 / psy_rd=1.00:0.00 / mixed_ref=1 / me_range=32 / chroma_me=1 / trellis=2 / 8x8dct=1 / cqm=0 / deadzone=21,11 / fast_pskip=0 / chroma_qp_offset=-2 / threads=14 / sliced_threads=0 / nr=0 / decimate=0 / interlaced=0 / bluray_compat=0 / constrained_intra=0 / bframes=7 / b_pyramid=2 / b_adapt=2 / b_bias=0 / direct=3 / weightb=1 / open_gop=0 / weightp=2 / keyint=250 / keyint_min=23 / scenecut=40 / intra_refresh=0 / rc_lookahead=40 / rc=2pass / mbtree=0 / bitrate=13500 / ratetol=1.0 / qcomp=0.65 / qpmin=0 / qpmax=40 / qpstep=4 / cplxblur=20.0 / qblur=0.5 / vbv_maxrate=50000 / vbv_bufsize=50000 / nal_hrd=none / ip_ratio=1.25 / pb_ratio=1.25 / aq=1:0.65
Language                                 : English
Default                                  : No
Forced                                   : No

Audio #1
ID                                       : 2
Format                                   : AC-3
Format/Info                              : Audio Coding 3
Commercial name                          : Dolby Digital
Codec ID                                 : A_AC3
Duration                                 : 1 h 31 min
Bit rate mode                            : Constant
Bit rate                                 : 192 kb/s
Channel(s)                               : 2 channels
Channel layout                           : L R
Sampling rate                            : 48.0 kHz
Frame rate                               : 31.250 FPS (1536 SPF)
Bit depth                                : 16 bits
Compression mode                         : Lossy
Stream size                              : 126 MiB (1%)
Title                                    : , 2 ch, 192 Кбт/с
Language                                 : Ukrainian
Service kind                             : Complete Main
Default                                  : Yes
Forced                                   : No

Audio #2
ID                                       : 3
Format                                   : AC-3
Format/Info                              : Audio Coding 3
Commercial name                          : Dolby Digital
Codec ID                                 : A_AC3
Duration                                 : 1 h 31 min
Bit rate mode                            : Constant
Bit rate                                 : 384 kb/s
Channel(s)                               : 6 channels
Channel layout                           : L R C LFE Ls Rs
Sampling rate                            : 48.0 kHz
Frame rate                               : 31.250 FPS (1536 SPF)
Bit depth                                : 16 bits
Compression mode                         : Lossy
Stream size                              : 251 MiB (2%)
Title                                    : , 6 ch, 384 Кбт/с
Language                                 : Ukrainian
Service kind                             : Complete Main
Default                                  : No
Forced                                   : No

Audio #3
ID                                       : 4
Format                                   :
Format/Info                              : Digital Theater Systems
Codec ID                                 : A_DTS
Duration                                 : 1 h 31 min
Bit rate mode                            : Constant
Bit rate                                 : 1 509 kb/s
Channel(s)                               : 6 channels
Channel layout                           : C L R Ls Rs LFE
Sampling rate                            : 48.0 kHz
Frame rate                               : 93.750 FPS (512 SPF)
Bit depth                                : 24 bits
Compression mode                         : Lossy
Delay relative to video                  : 11 ms
Stream size                              : 987 MiB (10%)
Title                                    : , 6 ch, 1510 Кбт/с
Language                                 : English
Default                                  : No
Forced                                   : No

Text
ID                                       : 5
Format                                   : UTF-8
Codec ID                                 : S_TEXT/UTF8
Codec ID/Info                            : UTF-8 Plain Text
Duration                                 : 1 h 26 min
Bit rate                                 : 70 b/s
Count of elements                        : 1349
Stream size                              : 44.2 KiB (0%)
Title                                    : Full
Language                                 : English
Default                                  : No
Forced                                   : No

Menu
00:00:00.000                             : en:00:00:00.000
00:07:33.870                             : en:00:07:33.870
00:13:04.283                             : en:00:13:04.283
00:21:34.627                             : en:00:21:34.627
00:28:14.067                             : en:00:28:14.067
00:34:47.585                             : en:00:34:47.585
00:41:34.784                             : en:00:41:34.784
00:46:32.123                             : en:00:46:32.123
00:53:28.705                             : en:00:53:28.705
01:00:09.231                             : en:01:00:09.231
01:09:17.445                             : en:01:09:17.445
01:14:51.862                             : en:01:14:51.862
01:21:50.906                             : en:01:21:50.906
01:26:46.034                             : en:01:26:46.034

Запис з ТБ: OlegCena,ratbol, Sando7
Синхронізація : patriot2305


Джерело:
Особиста оцінка: 8 - мені сподобалося


Авторський реліз (завантажувати можна без реєстрації)
 Трекер:    Зареєстрований   

Завантажити / скачати фільм українською



відео для новачків



 Зареєстрований:   2019-10-18 21:30
 Розмір:   9.96 GB 
 Оцінка фільму:   8.5/10 (Голосів: 4)
   
Інші релізи
   Тисяча слів / A Thousand Words (2012) Remux 1080p 2хUkr/Eng | Sub Eng antik_2008  0 / 0   21.84 GB   2019-10-20 09:29 
   Тисяча слів / A Thousand Words (2012) AVC 2хUkr/Eng | Sub Eng Maters  11 / 0   1.99 GB   2019-10-18 19:04 
   Тисяча слів / A Thousand Words (2012) patriot2305  4 / 0   1.45 GB   2015-01-07 16:51 
   Тисяча слів / A Thousand Words (2012) 720p 2хUkr/Eng | Sub Eng kino.  2 / 0   4.29 GB   2014-06-11 17:29 
   Тисяча слів / A Thousand Words (2012) TRO[9]N  3 / 0   1.46 GB   2012-11-11 21:50 
0mage0 
VIP


З нами з: 06.10.15
Востаннє: 06.12.19
Повідомлень: 582

2019-10-20 17:37  
Взагалі не смішно, нудятина. Єдиний натяк на гумор — персонаж помічника Джека.
Anonymous 







2019-10-20 18:15  
0mage0
Так це і не дуже комедія , треба сенс фільму піймати Happy

0mage0 
VIP


З нами з: 06.10.15
Востаннє: 06.12.19
Повідомлень: 582

2019-10-20 18:55  
Anonymous написано:
Так це і не дуже комедія , треба сенс фільму піймати

Сенс фільму занадто глибокий для мене Happy

Ваш часовий пояс: GMT + 2 Години

Нова тема   Відповісти